<?xml version="1.0" standalone="no"?>
<!DOCTYPE svg PUBLIC "-//W3C//DTD SVG 1.1//EN" "http://www.w3.org/Graphics/SVG/1.1/DTD/svg11.dtd" >
<svg xmlns="http://www.w3.org/2000/svg" xmlns:xlink="http://www.w3.org/1999/xlink" version="1.1">
<metadata>
Created by FontForge 20201107 at Tue Feb 27 17:57:01 2001
 By Unknown
(URW)++,Copyright 2000 by (URW)++ Design &#38; Development
</metadata>
<defs>
<font id="LegacySansItcTOT-Book" horiz-adv-x="537" >
  <font-face 
    font-family="Legacy Sans Itc T OT"
    font-weight="400"
    font-stretch="normal"
    units-per-em="1000"
    panose-1="2 0 0 0 0 0 0 0 0 0"
    ascent="800"
    descent="-200"
    x-height="422"
    cap-height="634"
    bbox="-210 -277 984 883"
    underline-thickness="52"
    underline-position="-129"
    stemh="51"
    stemv="74"
    unicode-range="U+0020-FB02"
  />
<missing-glyph horiz-adv-x="241" 
 />
    <glyph glyph-name="fi" unicode="fi" 
d="M171 422h155v-50h-155v-372h-72v372h-64v36l64 14v27c0 78 16 129 52 171c40 46 100 72 164 72s134 -33 134 -64c0 -9 -1 -13 -5 -15l-40 -26h-17c-12 28 -49 45 -100 45c-38 0 -71 -14 -92 -39c-17 -22 -24 -62 -24 -144v-27zM380 422h72v-422h-72v422z" />
    <glyph glyph-name="fl" unicode="fl" 
d="M383 692h69v-692h-72v607c-27 17 -55 24 -93 24c-40 0 -73 -14 -92 -38c-17 -22 -24 -62 -24 -144v-27h155v-50h-155v-372h-72v372h-64v36l64 14v27c0 80 15 130 52 171c41 45 99 72 153 72c28 0 51 -5 79 -17v17z" />
    <glyph glyph-name=".notdef" horiz-adv-x="241" 
 />
    <glyph glyph-name="space" unicode=" " horiz-adv-x="241" 
 />
    <glyph glyph-name="space" unicode="&#xa0;" horiz-adv-x="241" 
 />
    <glyph glyph-name="exclam" unicode="!" horiz-adv-x="352" 
d="M131 645h90v-114l-31 -376h-29l-30 376v114zM175 93c29 0 52 -24 52 -52c0 -29 -23 -52 -53 -52c-28 0 -51 24 -51 52s23 52 52 52z" />
    <glyph glyph-name="quotedbl" unicode="&#x22;" 
d="M173 356l-14 221v57h71v-57l-14 -221h-43zM321 356l-14 221v57h71v-57l-14 -221h-43z" />
    <glyph glyph-name="numbersign" unicode="#" horiz-adv-x="574" 
d="M246 446h142l45 185h42l-45 -185h135l-13 -51h-134l-35 -143h134l-13 -53h-134l-49 -199h-42l49 199h-142l-49 -199h-42l49 199h-135l13 53h135l34 143h-134l12 51h135l45 185h42zM233 395l-34 -143h142l34 143h-142z" />
    <glyph glyph-name="dollar" unicode="$" 
d="M252 698h41v-75c35 -1 69 -6 116 -15c11 -3 13 -4 13 -11l3 -59c0 -3 -1 -5 -4 -7l-7 -3h-5c-2 0 -4 1 -10 6c-29 20 -68 33 -106 35v-211c60 -23 94 -40 120 -63c36 -32 56 -74 56 -120c0 -89 -66 -150 -176 -165v-106h-41v105c-59 1 -107 7 -153 18c-13 4 -15 5 -17 12
l-3 56l-1 2c-1 2 2 6 6 7l7 2l6 1c2 0 2 0 13 -7c53 -28 99 -41 142 -40v229c-122 46 -169 94 -169 175c0 87 65 148 169 159v75zM252 371v198c-59 -4 -94 -39 -94 -92c0 -50 28 -81 94 -106zM293 276v-212c61 6 98 42 98 95c0 54 -25 83 -98 117z" />
    <glyph glyph-name="percent" unicode="%" horiz-adv-x="667" 
d="M162 645c84 0 139 -65 139 -164c0 -106 -56 -174 -145 -174c-85 0 -140 66 -140 169c0 102 58 169 146 169zM160 601c-48 0 -79 -50 -79 -126c0 -78 29 -125 77 -125c49 0 78 48 78 129c0 73 -31 122 -76 122zM521 634h53l-435 -645h-54zM512 327c84 0 139 -65 139 -164
c0 -107 -56 -174 -145 -174c-85 0 -140 66 -140 169s57 169 146 169zM510 284c-47 0 -79 -51 -79 -127c0 -78 29 -125 77 -125c49 0 78 48 78 129c0 73 -31 123 -76 123z" />
    <glyph glyph-name="ampersand" unicode="&#x26;" horiz-adv-x="630" 
d="M538 351h74c-30 -75 -76 -153 -117 -203c65 -93 87 -111 150 -117v-31c-11 -1 -31 -2 -43 -2c-68 0 -94 15 -143 80c-4 5 -7 9 -10 13c-71 -72 -131 -102 -206 -102c-113 0 -201 78 -201 179c0 76 42 127 147 178c-44 35 -65 76 -65 124c0 82 69 144 161 144
c83 0 143 -54 143 -129c0 -66 -40 -111 -124 -139c72 -53 114 -94 160 -156c26 36 58 105 74 161zM265 374c67 22 96 55 96 107c0 54 -33 90 -81 90c-52 0 -86 -35 -86 -87c0 -46 23 -82 71 -110zM226 315c-71 -30 -105 -74 -105 -133c0 -74 57 -126 138 -126
c63 0 109 22 161 76c-63 85 -81 102 -194 183z" />
    <glyph glyph-name="quoteright" unicode="&#x2019;" horiz-adv-x="259" 
d="M78 403l-17 19c33 27 43 37 57 56c18 24 30 54 30 73c0 17 -7 27 -24 32c-28 8 -40 20 -40 41c0 24 19 41 44 41c41 0 72 -39 72 -90c0 -57 -39 -121 -101 -165c-2 -1 -6 -3 -12 -8c-2 -1 -3 -2 -4 -2s-3 1 -5 3z" />
    <glyph glyph-name="parenleft" unicode="(" horiz-adv-x="370" 
d="M264 682l28 -22c-113 -147 -162 -284 -162 -454c0 -160 53 -305 162 -440l-28 -23c-133 128 -202 288 -202 470c0 178 70 341 202 469z" />
    <glyph glyph-name="parenright" unicode=")" horiz-adv-x="370" 
d="M106 -257l-27 23c113 147 161 283 161 453c0 161 -53 305 -161 441l27 22c134 -128 202 -287 202 -469c0 -179 -71 -343 -202 -470z" />
    <glyph glyph-name="asterisk" unicode="*" 
d="M88 498h33l117 -11l-67 96l-17 28l47 29l18 -29l50 -105l49 105l17 29l48 -29l-17 -28l-67 -96l117 11h33v-54h-33l-117 11l67 -96l17 -28l-48 -29l-17 29l-49 105l-50 -105l-18 -29l-47 29l17 28l67 96l-117 -11h-33v54z" />
    <glyph glyph-name="plus" unicode="+" 
d="M242 343v166c0 10 3 13 13 13h26c13 0 13 0 13 -13v-166h165c12 0 14 -2 14 -13v-26c0 -11 -2 -13 -14 -13h-165v-165c0 -12 -1 -13 -13 -13h-26c-10 0 -13 3 -13 13v165h-165c-11 0 -13 2 -13 13v26c0 11 2 13 13 13h165z" />
    <glyph glyph-name="comma" unicode="," horiz-adv-x="278" 
d="M85 -175l-19 21c33 26 45 37 59 56c19 25 31 54 31 73c0 16 -7 25 -25 30c-28 8 -39 21 -39 43c0 25 18 43 45 43c42 0 75 -40 75 -93c0 -56 -30 -107 -92 -157c-17 -14 -26 -20 -30 -20c-1 0 -2 0 -5 4z" />
    <glyph glyph-name="hyphen" unicode="-" horiz-adv-x="315" 
d="M54 269h219l-13 -64h-219z" />
    <glyph glyph-name="hyphen" unicode="&#xad;" horiz-adv-x="315" 
d="M54 269h219l-13 -64h-219z" />
    <glyph glyph-name="period" unicode="." horiz-adv-x="278" 
d="M138 93c29 0 52 -24 52 -52c0 -29 -23 -52 -53 -52c-28 0 -51 24 -51 52s23 52 52 52z" />
    <glyph glyph-name="slash" unicode="/" horiz-adv-x="407" 
d="M304 640h46l-302 -818h-46z" />
    <glyph glyph-name="zero" unicode="0" 
d="M274 646c132 0 206 -116 206 -323c0 -215 -76 -334 -214 -334c-134 0 -208 116 -208 327c0 213 77 330 216 330zM272 596c-42 0 -71 -19 -95 -62c-26 -45 -38 -114 -38 -217c0 -112 11 -179 37 -222c23 -39 52 -56 92 -56c90 0 131 87 131 279c0 186 -42 278 -127 278z
" />
    <glyph glyph-name="one" unicode="1" 
d="M302 637h35v-637h-74v552l-139 -67h-14v51z" />
    <glyph glyph-name="two" unicode="2" 
d="M471 72l-22 -72h-383v44c69 69 168 174 206 220c71 84 97 139 97 206c0 75 -41 121 -109 121c-43 0 -86 -16 -111 -41c-15 -16 -31 -45 -34 -61c-2 -10 -3 -11 -10 -11h-5c-5 0 -5 1 -8 10l-8 34c-3 9 -3 9 -3 11c0 8 12 27 29 46c42 45 98 68 168 68
c107 0 169 -60 169 -164c0 -68 -25 -128 -81 -196c-48 -58 -65 -75 -216 -215h321z" />
    <glyph glyph-name="three" unicode="3" 
d="M168 304l-11 36c74 33 92 41 121 63c36 25 54 58 54 99c0 57 -35 95 -89 95c-61 0 -111 -33 -132 -86c-2 -4 -3 -4 -8 -4h-7c-5 0 -6 0 -8 8l-11 36c-1 2 -2 6 -2 8c0 6 9 16 29 33c41 36 92 55 149 55c99 0 159 -49 159 -130c0 -62 -30 -102 -109 -147
c37 -4 53 -8 74 -19c50 -27 82 -83 82 -146s-32 -129 -82 -167c-39 -31 -97 -49 -157 -49c-69 0 -129 25 -162 68c-12 15 -14 20 -14 33c0 7 0 7 8 12l24 13l4 2c3 1 6 2 9 2h7c4 0 4 0 9 -8c31 -55 67 -77 125 -77c84 0 149 70 149 159c0 75 -51 130 -120 130
c-24 0 -41 -4 -91 -19z" />
    <glyph glyph-name="four" unicode="4" 
d="M508 225v-57h-89v-168h-72v168h-317v57l331 409h58v-409h89zM347 225v323l-256 -323h256z" />
    <glyph glyph-name="five" unicode="5" 
d="M194 634h278l-16 -72h-233l-42 -137c103 -16 156 -34 197 -65c54 -40 83 -97 83 -163c0 -117 -97 -208 -222 -208c-72 0 -135 29 -165 76c-9 13 -9 15 -10 37c0 5 2 7 7 10l25 18c9 5 10 6 15 6h8c6 0 6 0 9 -9c17 -54 72 -88 139 -88c70 0 123 60 123 139
c0 61 -34 116 -87 142c-42 20 -78 28 -182 42l-7 15z" />
    <glyph glyph-name="six" unicode="6" 
d="M471 615l-6 -14c-159 -1 -277 -97 -305 -249c61 39 96 51 146 51c108 0 176 -75 176 -194c0 -128 -86 -220 -206 -220c-123 0 -209 104 -209 254c0 152 84 301 205 365c51 26 104 39 165 39c12 0 15 -1 19 -7zM150 289l-1 -43c0 -131 48 -207 130 -207
c75 0 121 58 121 152c0 98 -43 152 -122 152c-45 0 -80 -15 -128 -54z" />
    <glyph glyph-name="seven" unicode="7" 
d="M66 634h428v-43l-328 -611l-68 21v9l320 552h-352v72z" />
    <glyph glyph-name="eight" unicode="8" 
d="M317 347c60 -27 90 -45 113 -65c33 -31 51 -70 51 -115c0 -104 -93 -178 -224 -178c-124 0 -200 61 -200 160c0 75 46 130 146 178c-86 47 -116 86 -116 154c0 101 77 166 196 166c106 0 171 -53 171 -141c0 -67 -40 -113 -137 -159zM261 375l17 -9c4 2 6 4 8 4
c66 33 98 76 98 128c0 64 -42 104 -107 104c-74 0 -120 -40 -120 -104c0 -28 9 -53 26 -72c16 -18 25 -24 78 -51zM244 306c-82 -42 -114 -83 -114 -147c0 -78 49 -121 137 -121c86 0 141 46 141 117c0 62 -32 91 -164 151z" />
    <glyph glyph-name="nine" unicode="9" 
d="M68 29l8 9c9 -1 18 -1 21 -1c66 0 125 22 181 67c63 50 92 101 111 194c-55 -42 -99 -59 -151 -59c-102 0 -176 80 -176 189c0 128 89 219 213 219c126 0 201 -94 201 -253c0 -229 -157 -405 -361 -405c-20 0 -21 0 -28 11zM396 367v13c0 139 -47 217 -133 217
c-75 0 -120 -58 -120 -155c0 -91 44 -143 121 -143c45 0 94 21 131 56c0 6 0 6 1 12z" />
    <glyph glyph-name="colon" unicode=":" horiz-adv-x="278" 
d="M138 93c29 0 52 -24 52 -52c0 -29 -23 -52 -53 -52c-28 0 -51 24 -51 52s23 52 52 52zM138 429c29 0 52 -23 52 -52s-23 -52 -53 -52c-28 0 -51 24 -51 52c0 29 23 52 52 52z" />
    <glyph glyph-name="semicolon" unicode=";" horiz-adv-x="278" 
d="M138 429c29 0 52 -23 52 -52s-23 -52 -52 -52s-52 24 -52 52c0 29 23 52 52 52zM85 -175l-19 21c33 26 45 37 59 56c19 25 31 54 31 73c0 16 -8 25 -25 30c-27 8 -39 21 -39 43c0 25 18 43 45 43c42 0 75 -40 75 -93c0 -56 -30 -107 -92 -157c-17 -14 -26 -20 -30 -20
c-1 0 -2 0 -5 4z" />
    <glyph glyph-name="less" unicode="&#x3c;" 
d="M462 531v-67l-314 -144l314 -144v-66l-386 182v57z" />
    <glyph glyph-name="equal" unicode="=" 
d="M77 397h382c12 0 14 -2 14 -13v-22c0 -11 -2 -13 -14 -13h-382c-11 0 -13 2 -13 13v22c0 11 2 13 13 13zM77 283h382c12 0 14 -2 14 -13v-22c0 -11 -2 -13 -14 -13h-382c-11 0 -13 2 -13 13v22c0 11 2 13 13 13z" />
    <glyph glyph-name="greater" unicode="&#x3e;" 
d="M76 110v67l315 143l-315 144v66l386 -181v-58z" />
    <glyph glyph-name="question" unicode="?" horiz-adv-x="444" 
d="M101 556l-17 46c-2 6 -3 8 -3 10c0 8 3 11 13 16c25 11 55 17 84 17c109 0 205 -95 205 -203c0 -38 -14 -74 -38 -97c-20 -19 -46 -36 -96 -60c-64 -31 -67 -36 -69 -143h-42c-4 56 -6 87 -6 104c0 31 5 46 21 62c15 16 20 19 74 49c79 43 96 61 96 102
c0 65 -56 116 -127 116c-28 0 -55 -6 -80 -19h-15zM158 90c28 0 51 -23 51 -51s-23 -50 -51 -50c-27 0 -50 23 -50 50c0 28 22 51 50 51z" />
    <glyph glyph-name="at" unicode="@" horiz-adv-x="778" 
d="M553 59l5 1c3 0 10 -17 10 -26c0 -4 -3 -5 -15 -11c-49 -21 -113 -33 -176 -33c-201 0 -326 108 -326 281c0 208 174 373 391 373c166 0 284 -102 284 -246c0 -103 -55 -190 -149 -233c-29 -13 -58 -21 -81 -21c-38 0 -54 14 -54 46c0 16 3 40 12 87
c-65 -93 -112 -133 -158 -133c-43 0 -70 39 -70 101c0 73 41 144 112 197c43 32 81 47 143 57l2 10c0 3 2 4 6 4h44c3 0 5 -1 5 -4c0 -1 0 -1 -1 -6l-37 -254c-5 -31 -6 -39 -6 -47c0 -15 6 -21 21 -21c80 0 152 99 152 211c0 125 -91 208 -229 208
c-178 0 -317 -144 -317 -330c0 -83 26 -143 82 -186c49 -37 112 -56 187 -56c56 0 125 13 163 31zM461 337l9 62c1 8 2 14 3 17l1 14c0 13 -9 20 -25 20c-78 0 -165 -103 -165 -196c0 -35 11 -52 32 -52c22 0 43 13 74 46c23 25 50 58 71 89z" />
    <glyph glyph-name="A" unicode="A" horiz-adv-x="611" 
d="M299 634h62l245 -634h-85l-75 205h-276l-85 -205h-80zM427 254l-111 298l-125 -298h236z" />
    <glyph glyph-name="B" unicode="B" horiz-adv-x="593" 
d="M100 0v634c52 1 54 1 98 2c35 1 64 1 76 1c93 0 136 -9 170 -37c33 -27 51 -66 51 -110c0 -66 -31 -107 -101 -134c45 -8 66 -15 89 -31c42 -28 67 -78 67 -132c0 -70 -38 -131 -102 -163c-47 -23 -94 -30 -213 -30h-135zM178 365h84c61 0 86 6 110 25c25 21 38 50 38 88
c0 40 -14 70 -40 89c-22 15 -49 21 -102 21c-24 0 -37 -1 -90 -4v-219zM178 52l87 -1c72 0 120 11 152 36c31 23 48 59 48 98c0 48 -23 88 -63 108c-30 15 -75 22 -141 22h-83v-263z" />
    <glyph glyph-name="C" unicode="C" horiz-adv-x="648" 
d="M619 608l-5 -43c-2 -8 -2 -9 -6 -11l-6 -3c-2 -1 -5 -2 -6 -2c-2 0 -2 0 -14 6c-42 21 -113 37 -168 37c-164 0 -272 -109 -272 -275c0 -88 28 -157 87 -210c49 -45 108 -68 178 -68c58 0 132 16 173 37c11 5 12 6 13 6s4 -2 5 -3l5 -4c4 -2 4 -3 4 -5l-1 -4l-7 -42
c-2 -7 -5 -11 -15 -14c-30 -10 -125 -21 -188 -21c-89 0 -149 16 -205 53c-85 56 -138 157 -138 262c0 111 57 215 151 277c67 44 142 64 242 64c61 0 138 -11 166 -23c6 -2 9 -7 8 -11z" />
    <glyph glyph-name="D" unicode="D" horiz-adv-x="722" 
d="M100 0v635c96 3 160 5 223 5c140 0 199 -16 256 -71c56 -54 90 -144 90 -239c0 -104 -42 -198 -116 -259c-61 -51 -138 -71 -265 -71h-188zM178 50h115c100 0 170 21 213 65c45 45 74 128 74 211c0 97 -40 184 -103 227c-40 28 -81 37 -167 37c-41 0 -41 0 -132 -4v-536z
" />
    <glyph glyph-name="E" unicode="E" 
d="M100 634h409v-55h-331v-214h293v-56h-293v-251h333v-58h-411v634z" />
    <glyph glyph-name="F" unicode="F" horiz-adv-x="482" 
d="M100 634h410v-55h-332v-222h281v-55h-281v-302h-78v634z" />
    <glyph glyph-name="G" unicode="G" horiz-adv-x="704" 
d="M561 314h79v-298c-91 -18 -174 -27 -233 -27c-91 0 -162 16 -219 50c-84 51 -135 148 -135 258c0 140 76 260 200 314c53 23 117 35 189 35c52 0 144 -11 167 -21c7 -3 10 -6 11 -12l2 -48v-3c0 -2 -1 -4 -3 -6l-8 -6c-1 -1 -2 -2 -3 -2s-2 0 -3 1
c-67 31 -124 44 -187 44c-167 0 -276 -110 -276 -279c0 -168 109 -272 285 -272c46 0 82 4 134 16v256z" />
    <glyph glyph-name="H" unicode="H" horiz-adv-x="741" 
d="M178 361h385v273h79v-634h-79v303h-385v-303h-78v634h78v-273z" />
    <glyph glyph-name="I" unicode="I" horiz-adv-x="278" 
d="M100 634h78v-634h-78v634z" />
    <glyph glyph-name="J" unicode="J" horiz-adv-x="278" 
d="M100 634h78v-540c0 -116 -7 -148 -41 -196c-39 -56 -97 -88 -157 -88c-32 0 -63 11 -76 28c-2 3 -3 6 -3 14s1 10 5 14l26 26c3 2 4 3 8 3h5c5 0 5 0 16 -6c15 -8 33 -13 51 -13c42 0 68 21 79 64c7 26 9 65 9 158v536z" />
    <glyph glyph-name="K" unicode="K" horiz-adv-x="592" 
d="M100 634h78v-634h-78v634zM499 634h101l-325 -282l340 -352h-110l-322 339z" />
    <glyph glyph-name="L" unicode="L" horiz-adv-x="481" 
d="M100 634h78v-576h320v-58h-398v634z" />
    <glyph glyph-name="M" unicode="M" horiz-adv-x="889" 
d="M123 634h78l247 -512l262 512h74l16 -634h-78l-8 534l-266 -526l-27 -5l-253 526l-8 -529h-72z" />
    <glyph glyph-name="N" unicode="N" horiz-adv-x="722" 
d="M85 634h59l432 -504l-14 504h70l-1 -631l-34 -12l-457 528l15 -519h-70v634z" />
    <glyph glyph-name="O" unicode="O" horiz-adv-x="778" 
d="M404 651c185 0 321 -138 321 -326c0 -122 -62 -236 -160 -294c-50 -30 -120 -48 -183 -48c-183 0 -329 147 -329 330c0 112 60 224 151 282c61 38 124 56 200 56zM390 593c-146 0 -248 -108 -248 -263c0 -161 114 -289 256 -289c135 0 238 116 238 266
c0 81 -32 166 -84 221c-40 42 -97 65 -162 65z" />
    <glyph glyph-name="P" unicode="P" 
d="M100 0v634c54 1 68 1 96 2c34 1 59 1 70 1c84 0 133 -9 170 -30c51 -30 81 -87 81 -154c0 -84 -48 -155 -124 -185c-40 -16 -80 -21 -157 -21c-21 0 -31 0 -58 1v-248h-78zM178 582v-279c28 -2 43 -3 66 -3c132 0 188 45 188 150c0 57 -20 97 -59 117
c-23 12 -56 18 -108 18c-18 0 -62 -2 -87 -3z" />
    <glyph glyph-name="Q" unicode="Q" horiz-adv-x="778" 
d="M706 -112l6 -40c-18 -5 -28 -6 -50 -6c-56 0 -106 17 -174 61c-40 26 -78 56 -114 91c-57 0 -108 13 -156 38c-99 53 -165 165 -165 282c0 109 58 216 151 276c55 36 124 55 196 55c75 0 143 -20 196 -59c80 -58 129 -156 129 -260c0 -121 -63 -233 -163 -290
c-24 -14 -47 -23 -81 -32c81 -80 149 -115 225 -116zM390 592c-146 0 -248 -108 -248 -263c0 -160 114 -288 256 -288c135 0 238 116 238 266c0 80 -32 166 -84 220c-40 42 -97 65 -162 65z" />
    <glyph glyph-name="R" unicode="R" horiz-adv-x="611" 
d="M100 634l171 3c93 0 137 -7 171 -28c43 -27 72 -83 72 -143c0 -80 -43 -136 -135 -174c39 -72 115 -179 152 -215c25 -24 56 -40 88 -44l-10 -31c-2 -5 -6 -7 -17 -7c-63 0 -100 14 -140 55c-38 39 -85 108 -153 224c-26 -4 -47 -5 -82 -5c-11 0 -19 0 -39 1v-270h-78
v634zM178 582v-260c28 -2 48 -3 68 -3c127 0 183 42 183 138c0 54 -20 94 -57 112c-24 11 -56 16 -105 16c-22 0 -67 -2 -89 -3z" />
    <glyph glyph-name="S" unicode="S" horiz-adv-x="500" 
d="M418 616l9 -55c0 -2 0 -2 1 -4c0 -1 -2 -2 -3 -3l-11 -5c-3 -1 -3 -1 -4 -1c-2 0 -4 1 -10 6c-32 22 -90 39 -136 39c-80 0 -132 -42 -132 -106c0 -30 11 -54 34 -71s35 -24 112 -57c73 -31 106 -50 134 -78s44 -66 44 -107c0 -110 -97 -185 -239 -185
c-48 0 -133 12 -163 23c-11 4 -16 7 -17 13l-9 56v5c0 2 1 4 4 5l8 4l5 1c1 0 3 -1 7 -3c43 -27 119 -47 178 -47c87 0 147 46 147 112c0 25 -10 52 -27 69c-20 21 -47 36 -109 62c-87 37 -108 48 -137 73c-31 27 -48 65 -48 109c0 106 90 175 229 175c39 0 101 -9 122 -18
c7 -2 10 -6 11 -12z" />
    <glyph glyph-name="T" unicode="T" horiz-adv-x="555" 
d="M-29 634h614v-55h-269v-579h-78v579h-267v55z" />
    <glyph glyph-name="U" unicode="U" horiz-adv-x="685" 
d="M84 634h78v-316c0 -150 3 -174 22 -207c23 -36 83 -59 157 -59c80 0 145 31 171 82c14 29 20 84 20 184v316h70v-316c0 -149 -15 -211 -63 -258c-46 -45 -126 -71 -219 -71c-107 0 -179 32 -211 93c-23 45 -25 59 -25 236v316z" />
    <glyph glyph-name="V" unicode="V" horiz-adv-x="555" 
d="M-8 634h87l198 -528l224 528h78l-293 -634h-46z" />
    <glyph glyph-name="W" unicode="W" horiz-adv-x="926" 
d="M-1 634h82l181 -528l185 528h50l177 -529l192 529h78l-259 -634h-50l-168 506l-188 -506h-50z" />
    <glyph glyph-name="X" unicode="X" 
d="M20 634h92l170 -253l174 253h88l-231 -297l239 -337h-91l-193 286l-198 -286h-91l257 328z" />
    <glyph glyph-name="Y" unicode="Y" horiz-adv-x="463" 
d="M-32 634h90l180 -303l188 303h88l-250 -355v-279h-79v275z" />
    <glyph glyph-name="Z" unicode="Z" horiz-adv-x="555" 
d="M51 634h492v-33l-419 -543h419l-9 -58h-522v35l425 544h-386v55z" />
    <glyph glyph-name="bracketleft" unicode="[" horiz-adv-x="370" 
d="M98 677h193v-34h-126v-862h126v-34h-193v930z" />
    <glyph glyph-name="backslash" unicode="\" horiz-adv-x="407" 
d="M103 640l302 -818h-46l-302 818h46z" />
    <glyph glyph-name="bracketright" unicode="]" horiz-adv-x="370" 
d="M272 -253h-193v34h126v862h-126v34h193v-930z" />
    <glyph glyph-name="asciicircum" unicode="^" horiz-adv-x="476" 
d="M100 346h-77l168 290h94l167 -290h-77l-138 233z" />
    <glyph glyph-name="underscore" unicode="_" horiz-adv-x="476" 
d="M0 -103h476v-52h-476v52z" />
    <glyph glyph-name="quoteleft" unicode="&#x2018;" horiz-adv-x="259" 
d="M182 672l18 -19c-33 -27 -44 -37 -57 -56c-18 -24 -30 -54 -30 -73c0 -17 7 -27 24 -32c28 -9 39 -20 39 -41c0 -24 -18 -41 -44 -41c-40 0 -71 40 -71 90s26 99 77 146c15 13 37 29 40 29c1 0 2 -1 4 -3z" />
    <glyph glyph-name="a" unicode="a" horiz-adv-x="500" 
d="M91 329l-4 45v2c3 8 3 8 10 12c41 28 105 45 164 45c51 0 91 -13 113 -36c15 -15 28 -56 27 -83l-1 -22l-3 -184v-26c0 -26 6 -34 25 -34c17 0 36 6 60 18l4 -2v-33c0 -5 -2 -8 -7 -11c-25 -15 -73 -30 -96 -30c-25 0 -40 12 -47 38c-65 -25 -123 -38 -164 -38
c-69 0 -109 44 -109 118c0 57 21 84 77 100c53 15 116 28 190 37v19c0 67 -1 73 -14 88c-15 18 -41 26 -80 26c-59 0 -92 -15 -122 -53zM329 69v134c-55 -7 -94 -15 -144 -30c-42 -12 -52 -23 -52 -57c0 -46 25 -70 74 -70c34 0 69 7 122 23z" />
    <glyph glyph-name="b" unicode="b" horiz-adv-x="556" 
d="M84 692h72v-299c62 28 107 40 160 40c116 0 188 -74 188 -193c0 -145 -117 -248 -282 -248c-44 0 -94 8 -128 20c-9 3 -10 4 -10 12v668zM156 345v-279c29 -11 64 -16 106 -16c105 0 163 59 163 165c0 100 -53 160 -140 160c-41 0 -88 -11 -129 -30z" />
    <glyph glyph-name="c" unicode="c" horiz-adv-x="444" 
d="M388 345h-16c-31 25 -56 34 -93 34c-92 0 -149 -62 -149 -163c0 -100 59 -170 145 -170c46 0 91 15 135 45l7 -4v-31c0 -5 -1 -8 -7 -12c-41 -31 -116 -56 -168 -56c-111 0 -191 85 -191 203c0 80 34 146 101 193c45 32 99 49 155 49c44 0 84 -12 109 -34
c5 -4 5 -5 5 -17s-1 -14 -5 -17z" />
    <glyph glyph-name="d" unicode="d" horiz-adv-x="556" 
d="M400 692h72v-692h-72v43c-64 -37 -110 -52 -160 -52c-114 0 -188 79 -188 201c0 82 31 145 93 189c49 35 106 52 171 52c30 0 50 -3 84 -11v270zM400 88v254c-31 22 -66 33 -112 33c-102 0 -161 -60 -161 -163c0 -97 60 -163 150 -163c38 0 77 12 123 39z" />
    <glyph glyph-name="e" unicode="e" horiz-adv-x="444" 
d="M405 242l-274 -37c4 -100 54 -159 135 -159c43 0 84 13 122 38h9l10 -30c0 -7 -1 -7 -9 -13c-53 -36 -104 -54 -157 -54c-115 0 -191 87 -191 218c0 133 82 229 197 229c99 0 159 -73 158 -192zM130 248l196 29c-5 70 -38 111 -90 111c-63 0 -102 -52 -106 -140z" />
    <glyph glyph-name="f" unicode="f" horiz-adv-x="296" 
d="M171 422h143v-50h-143v-372h-72v372h-64v36l64 14v27c0 81 16 131 55 173c42 45 105 73 166 73c52 0 105 -24 105 -47c0 -6 -1 -9 -4 -13l-29 -37h-12c-25 23 -53 34 -90 34c-39 0 -75 -15 -94 -38c-18 -23 -25 -63 -25 -145v-27z" />
    <glyph glyph-name="g" unicode="g" horiz-adv-x="481" 
d="M463 421v-50h-101c32 -31 45 -63 45 -108c0 -55 -26 -100 -76 -131c-27 -18 -50 -27 -128 -50c-40 -12 -41 -13 -41 -24c0 -21 18 -27 133 -43c90 -12 114 -18 139 -36c28 -20 41 -44 41 -75c0 -95 -127 -171 -283 -171c-106 0 -169 37 -169 100c0 55 47 96 165 141
c-67 11 -92 29 -92 67c0 20 8 33 25 42c8 4 17 8 67 26c-42 8 -63 18 -86 40c-29 28 -45 69 -45 113c0 98 75 172 174 172c25 0 44 -4 70 -13h162zM254 142c55 15 81 50 81 106c0 82 -47 143 -109 143c-59 0 -97 -43 -97 -111c0 -84 47 -139 119 -139c1 0 3 0 6 1zM232 -37
c-100 -47 -135 -77 -135 -117c0 -38 53 -64 129 -64c98 0 182 50 182 108c0 43 -32 56 -176 73z" />
    <glyph glyph-name="h" unicode="h" 
d="M84 692h72v-322c63 43 119 63 172 63c54 0 94 -21 113 -58c13 -25 14 -39 15 -142v-233h-72v236v31c0 42 -3 58 -14 74c-14 19 -38 29 -70 29c-39 0 -100 -21 -144 -50v-320h-72v692z" />
    <glyph glyph-name="i" unicode="i" horiz-adv-x="241" 
d="M84 422h72v-422h-72v422zM120 673c25 0 45 -20 45 -45s-20 -45 -45 -45c-24 0 -45 21 -45 45c0 25 20 45 45 45z" />
    <glyph glyph-name="j" unicode="j" horiz-adv-x="241" 
d="M85 422h72v-448c0 -111 -3 -128 -30 -170c-30 -46 -83 -75 -136 -75c-33 0 -61 15 -61 32c0 5 1 8 3 10l27 29h13c16 -9 31 -13 47 -13c27 0 46 14 57 40c7 17 8 26 8 92v503zM121 673c25 0 45 -20 45 -45s-21 -45 -46 -45c-23 0 -44 21 -44 45c0 25 20 45 45 45z" />
    <glyph glyph-name="k" unicode="k" horiz-adv-x="463" 
d="M84 692h72v-692h-72v692zM369 422h99l-224 -181l233 -241h-101l-214 228z" />
    <glyph glyph-name="l" unicode="l" horiz-adv-x="241" 
d="M84 692h72v-692h-72v692z" />
    <glyph glyph-name="m" unicode="m" horiz-adv-x="815" 
d="M84 422h72v-65c73 55 121 76 174 76c54 0 85 -21 104 -69c69 49 117 69 170 69c51 0 95 -24 115 -62c11 -21 14 -47 14 -107v-264h-72v244c0 68 -1 71 -8 87c-11 26 -36 40 -72 40c-39 0 -87 -19 -137 -54v-317h-72v228c0 81 0 87 -7 104c-9 25 -32 39 -62 39
c-42 0 -94 -24 -147 -68v-303h-72v422z" />
    <glyph glyph-name="n" unicode="n" 
d="M84 422h72v-65c71 55 120 76 179 76c49 0 85 -18 105 -52c14 -25 16 -43 16 -128v-253h-72v245c0 65 -1 74 -11 92c-11 22 -33 34 -61 34c-44 0 -101 -25 -156 -68v-303h-72v422z" />
    <glyph glyph-name="o" unicode="o" horiz-adv-x="555" 
d="M285 433c131 0 220 -86 220 -212c0 -134 -102 -234 -240 -234c-123 0 -214 92 -214 217c0 133 98 229 234 229zM277 384c-88 0 -147 -60 -147 -149c0 -109 69 -198 152 -198s144 71 144 167c0 102 -65 180 -149 180z" />
    <glyph glyph-name="p" unicode="p" horiz-adv-x="556" 
d="M156 5v-257c0 -6 -1 -7 -8 -7h-56c-7 0 -8 1 -8 7v667c0 6 1 7 8 7h54c10 0 10 0 10 -8v-26c64 32 109 45 162 45c113 0 186 -77 186 -197c0 -83 -34 -150 -102 -196c-44 -31 -98 -48 -154 -48c-30 0 -53 3 -92 13zM156 340v-266c35 -17 67 -24 107 -24
c102 0 166 64 166 165c0 95 -60 160 -149 160c-42 0 -84 -12 -124 -35z" />
    <glyph glyph-name="q" unicode="q" horiz-adv-x="556" 
d="M400 -252v277c-58 -26 -102 -37 -153 -37c-118 0 -195 76 -195 194c0 146 118 251 283 251c41 0 95 -8 127 -19c9 -3 10 -4 10 -11v-655c0 -6 -1 -7 -7 -7h-57c-7 0 -8 1 -8 7zM400 70v289c-28 10 -66 16 -100 16c-108 0 -170 -63 -170 -171c0 -101 55 -158 153 -158
c40 0 79 8 117 24z" />
    <glyph glyph-name="r" unicode="r" horiz-adv-x="333" 
d="M84 422h72v-116c37 59 46 73 63 90c25 25 51 37 80 37c21 0 48 -8 59 -18c4 -3 5 -6 5 -15c0 -6 -1 -11 -3 -15l-19 -39h-13c-13 9 -26 13 -45 13c-42 0 -63 -20 -127 -124v-235h-72v422z" />
    <glyph glyph-name="s" unicode="s" horiz-adv-x="389" 
d="M329 358l-17 -8c-38 25 -65 34 -102 34c-51 0 -86 -24 -86 -60c0 -33 20 -49 104 -80c57 -21 74 -30 95 -48c22 -20 33 -46 33 -78c0 -78 -72 -130 -181 -130c-35 0 -85 8 -112 19c-5 1 -6 3 -7 9l-11 57l18 9c44 -29 80 -41 127 -41c59 0 94 25 94 66
c0 35 -19 51 -91 77c-53 19 -72 27 -94 41c-28 19 -46 51 -46 85c0 73 68 123 168 123c33 0 78 -6 93 -13c3 -1 5 -4 6 -8z" />
    <glyph glyph-name="t" unicode="t" horiz-adv-x="333" 
d="M161 422h170v-50h-170v-216c0 -80 19 -109 72 -109c27 0 52 7 97 29l5 -29c1 -2 1 -3 1 -4c0 -3 -4 -7 -20 -17c-38 -23 -81 -37 -116 -37c-46 0 -80 19 -97 53c-11 23 -14 47 -14 114v216h-52v18l109 114h18z" />
    <glyph glyph-name="u" unicode="u" 
d="M454 422v-422h-72v64c-69 -55 -116 -76 -171 -76c-57 0 -99 26 -118 75c-10 27 -12 49 -12 150v209h72v-209c0 -94 1 -106 11 -126c12 -23 37 -36 67 -36c41 0 98 25 151 67v304h72z" />
    <glyph glyph-name="v" unicode="v" horiz-adv-x="407" 
d="M2 422h79l126 -345l148 345h69l-201 -422h-55z" />
    <glyph glyph-name="w" unicode="w" horiz-adv-x="685" 
d="M10 422h78l113 -343l138 343h39l114 -340l139 340h67l-196 -422h-50l-106 311l-130 -311h-52z" />
    <glyph glyph-name="x" unicode="x" horiz-adv-x="389" 
d="M12 422h87l109 -160l116 160h77l-165 -201l156 -221h-86l-114 173l-124 -173h-80l174 215z" />
    <glyph glyph-name="y" unicode="y" horiz-adv-x="407" 
d="M11 422h83l111 -345l150 345h73l-338 -681l-65 23l137 233z" />
    <glyph glyph-name="z" unicode="z" horiz-adv-x="389" 
d="M37 422h350v-31l-278 -336h276l-13 -55h-362v35l277 337h-250v50z" />
    <glyph glyph-name="braceleft" unicode="{" horiz-adv-x="370" 
d="M303 679v-33c-76 -7 -97 -34 -97 -121l1 -89c1 -25 1 -48 1 -65c0 -107 -25 -142 -114 -158c90 -17 114 -51 114 -158c0 -17 0 -41 -1 -65l-1 -89c0 -88 21 -114 97 -121v-33c-40 0 -69 5 -95 17c-50 23 -68 65 -68 159c0 13 0 35 1 54c1 39 2 72 2 92
c0 89 -37 127 -123 127v33c89 1 123 38 123 135c0 10 -1 49 -2 85c-1 22 -1 42 -1 58c0 126 43 171 163 172z" />
    <glyph glyph-name="bar" unicode="|" horiz-adv-x="475" 
d="M202 634h71v-793h-71v793z" />
    <glyph glyph-name="braceright" unicode="}" horiz-adv-x="370" 
d="M67 -253v33c32 3 47 7 60 16c27 18 37 46 37 105l-1 89c-1 27 -1 50 -1 66c0 106 26 141 114 157c-89 16 -114 51 -114 155c0 19 0 40 1 68l1 89c0 88 -21 114 -97 121v33c121 -1 163 -45 163 -175c0 -14 0 -35 -1 -55c-1 -38 -2 -71 -2 -91c0 -91 36 -128 123 -129v-33
c-89 0 -123 -37 -123 -136c0 -12 1 -50 2 -83c1 -25 1 -44 1 -60c0 -124 -44 -170 -163 -170z" />
    <glyph glyph-name="asciitilde" unicode="~" horiz-adv-x="634" 
d="M130 553l-42 27c40 82 74 111 131 111c26 0 55 -9 106 -33c54 -26 70 -31 92 -31c35 0 57 16 85 65l43 -25c-19 -39 -32 -58 -52 -76c-24 -20 -56 -32 -85 -32c-27 0 -49 8 -133 47c-25 11 -45 17 -61 17c-33 0 -57 -20 -84 -70z" />
    <glyph glyph-name="exclamdown" unicode="&#xa1;" horiz-adv-x="352" 
d="M221 -224h-90v115l30 375h29l31 -375v-115zM176 436c27 0 51 -24 51 -52c0 -29 -23 -52 -52 -52s-52 23 -52 52s23 52 53 52z" />
    <glyph glyph-name="cent" unicode="&#xa2;" 
d="M286 610h38v-74c11 1 20 2 27 2c42 0 78 -11 100 -30c6 -4 7 -7 7 -19c0 -13 0 -13 -6 -17l-29 -21h-16c-16 17 -44 26 -83 29v-298c39 -1 86 16 120 42l10 -4v-28c0 -7 -2 -10 -9 -15c-34 -24 -85 -44 -121 -47v-103h-38v101c-103 3 -173 78 -173 184
c0 102 72 192 173 218v80zM286 187v290c-63 -12 -96 -60 -96 -139c0 -77 35 -133 96 -151z" />
    <glyph glyph-name="sterling" unicode="&#xa3;" 
d="M379 318v-49h-121c8 -31 10 -47 10 -66c0 -51 -21 -95 -65 -138c22 7 42 10 64 10c18 0 33 -2 76 -10s62 -10 81 -10c37 0 63 12 88 39l10 -5v-32c0 -11 -1 -13 -13 -24c-32 -29 -69 -43 -114 -43c-32 0 -69 5 -120 15c-35 7 -47 9 -61 9c-22 0 -35 -4 -61 -16
c-3 -2 -6 -3 -8 -3c-3 0 -7 3 -11 9l-10 16c-3 5 -5 8 -5 11c0 4 3 7 13 15c39 29 62 73 62 121c0 31 -4 56 -17 102h-89v49h78c-11 46 -17 82 -17 112c0 68 27 126 76 164c40 31 93 50 140 50c48 0 93 -19 120 -50c14 -16 25 -39 25 -53c0 -5 -3 -9 -9 -11l-50 -21l-12 3
c-9 47 -41 71 -93 71c-75 0 -122 -50 -122 -131c0 -33 7 -74 23 -134h132z" />
    <glyph glyph-name="fraction" unicode="&#x2044;" horiz-adv-x="74" 
d="M224 634h53l-434 -643h-53z" />
    <glyph glyph-name="fraction" unicode="&#x2215;" horiz-adv-x="74" 
d="M224 634h53l-434 -643h-53z" />
    <glyph glyph-name="yen" unicode="&#xa5;" 
d="M31 634h89l167 -304l178 304h87l-182 -269h135v-38h-160l-33 -48v-28h193v-38h-193v-213h-76v213h-175v38h175v24l-30 52h-145v38h123z" />
    <glyph glyph-name="florin" unicode="&#x192;" 
d="M293 348h99l-10 -49h-99l-41 -186c-25 -122 -25 -122 -41 -160c-30 -71 -92 -119 -154 -119c-33 0 -71 22 -71 41v2c0 2 1 4 5 9l27 33h14c16 -18 31 -27 48 -27c20 0 39 14 53 40c12 24 17 43 40 152l47 215h-84l10 49h85l7 32c24 112 36 143 68 184c39 50 98 81 155 81
c61 0 109 -33 109 -75c0 -8 -1 -9 -10 -12l-50 -14l-10 6c-8 26 -28 39 -59 39c-30 0 -58 -14 -77 -38c-17 -24 -30 -59 -45 -132z" />
    <glyph glyph-name="section" unicode="&#xa7;" 
d="M394 543h-16c-22 30 -48 43 -87 43c-67 0 -110 -41 -110 -104c0 -24 8 -45 22 -61c19 -21 38 -34 116 -77c101 -56 138 -99 138 -164c0 -48 -29 -91 -87 -132c37 -33 52 -64 52 -107c0 -42 -21 -89 -57 -128c-42 -45 -98 -70 -160 -70c-45 0 -89 15 -116 40
c-7 6 -9 9 -9 15c0 10 1 12 4 17l28 40h13c25 -31 61 -47 106 -47c72 0 120 43 120 108c0 21 -6 40 -16 54c-17 25 -29 33 -123 84c-92 51 -129 96 -129 159c0 46 25 88 79 134c-36 36 -51 69 -51 112c0 103 94 192 203 192c48 0 94 -19 117 -49c4 -5 5 -9 5 -15
s-1 -8 -5 -12zM200 324c-33 -29 -47 -55 -47 -87c0 -50 29 -80 131 -137c25 -14 30 -17 47 -28c34 26 50 53 50 88c0 28 -11 52 -35 74c-19 16 -26 21 -101 63c-20 11 -29 17 -45 27z" />
    <glyph glyph-name="currency" unicode="&#xa4;" 
d="M157 182l-68 -68c-7 -8 -8 -8 -11 -8c-2 0 -5 2 -7 4l-19 19c-1 1 -3 5 -3 7c0 1 4 6 6 9l69 69c-27 34 -40 70 -40 112c0 41 12 76 40 112l-69 68c-3 4 -7 9 -7 11s2 4 4 6l18 19c3 3 5 4 7 4s5 -2 11 -8l69 -69c34 25 71 37 111 37s76 -12 112 -36l69 69c5 4 8 7 10 7
s5 -2 7 -4l19 -19c3 -3 4 -4 4 -6s-3 -6 -8 -11l-68 -68c28 -37 40 -71 40 -112c0 -45 -14 -84 -41 -112l69 -69c5 -5 7 -8 7 -11c0 -1 -2 -5 -3 -6l-19 -19c-3 -3 -5 -4 -7 -4s-5 2 -11 8l-69 69c-34 -25 -69 -37 -111 -37c-41 0 -73 11 -111 37zM270 442
c-64 0 -115 -51 -115 -116s51 -117 114 -117c62 0 113 53 113 117c0 63 -51 116 -112 116z" />
    <glyph glyph-name="quotesingle" unicode="'" horiz-adv-x="352" 
d="M155 356l-14 221v57h71v-57l-14 -221h-43z" />
    <glyph glyph-name="quotedblleft" unicode="&#x201c;" horiz-adv-x="444" 
d="M367 672l17 -19c-33 -27 -43 -37 -57 -56c-18 -24 -30 -54 -30 -73c0 -17 7 -27 24 -32c28 -9 39 -20 39 -41c0 -24 -18 -41 -44 -41c-40 0 -71 39 -71 90c0 50 26 99 78 146c14 13 36 29 39 29c1 0 3 -1 5 -3zM181 672l18 -19c-33 -27 -44 -37 -57 -56
c-18 -24 -30 -54 -30 -73c0 -18 7 -26 26 -33c26 -7 37 -20 37 -40c0 -24 -18 -41 -44 -41c-40 0 -71 40 -71 90s26 99 77 146c15 13 37 29 40 29c1 0 2 -1 4 -3z" />
    <glyph glyph-name="guillemotleft" unicode="&#xab;" horiz-adv-x="463" 
d="M417 71l-23 -14l-181 180l181 183l23 -15l-113 -168zM250 71l-23 -14l-181 180l181 183l23 -15l-113 -168z" />
    <glyph glyph-name="guilsinglleft" unicode="&#x2039;" horiz-adv-x="296" 
d="M250 71l-23 -14l-181 180l181 183l23 -15l-113 -168z" />
    <glyph glyph-name="guilsinglright" unicode="&#x203a;" horiz-adv-x="296" 
d="M46 406l23 14l181 -180l-181 -183l-23 15l113 168z" />
    <glyph glyph-name="endash" unicode="&#x2013;" horiz-adv-x="444" 
d="M37 260h370v-48h-370v48z" />
    <glyph glyph-name="dagger" unicode="&#x2020;" 
d="M233 634h72v-62l-13 -188l134 10h49v-66h-49l-133 13l10 -167l-10 -416h-48l-10 416l10 167l-134 -13h-49v66h49l134 -10l-12 188v62z" />
    <glyph glyph-name="daggerdbl" unicode="&#x2021;" 
d="M232 634h72v-62l-13 -183l144 13h39v-66h-39l-144 13l13 -138l-13 -155l144 13h39v-66h-39l-144 13l13 -188v-62h-72v62l13 188l-143 -13h-39v66h39l143 -13l-13 155l13 138l-143 -13h-39v66h39l143 -13l-13 183v62z" />
    <glyph glyph-name="periodcentered" unicode="&#xb7;" horiz-adv-x="278" 
d="M138 292c29 0 52 -24 52 -52c0 -29 -23 -52 -53 -52c-28 0 -51 24 -51 52s23 52 52 52z" />
    <glyph glyph-name="periodcentered" unicode="&#x2219;" horiz-adv-x="278" 
d="M138 292c29 0 52 -24 52 -52c0 -29 -23 -52 -53 -52c-28 0 -51 24 -51 52s23 52 52 52z" />
    <glyph glyph-name="paragraph" unicode="&#xb6;" horiz-adv-x="630" 
d="M482 686h37v-110h8h31c55 3 90 17 103 43h12l17 -35c2 -4 2 -5 2 -7c0 -10 -17 -20 -42 -25c-33 -7 -33 -7 -131 -8v-563c0 -76 -2 -95 -14 -124c-12 -31 -36 -53 -72 -68c-15 -6 -32 -10 -42 -10c-8 0 -10 3 -13 15l-7 36l7 12c67 3 104 53 104 139v67
c-49 -4 -69 -5 -100 -5c-82 0 -140 9 -187 28c-105 44 -163 132 -163 248c0 88 35 163 97 207c53 37 115 52 214 52c17 0 42 0 71 -1c41 -1 46 -1 68 -1v110zM482 544h-76c-58 0 -60 -3 -60 -83v-292c0 -87 3 -92 51 -92h85v467z" />
    <glyph glyph-name="bullet" unicode="&#x2022;" horiz-adv-x="634" 
d="M320 454c71 0 130 -60 130 -132c0 -73 -59 -132 -132 -132c-72 0 -132 59 -132 132s59 132 134 132z" />
    <glyph glyph-name="quotesinglbase" unicode="&#x201a;" horiz-adv-x="259" 
d="M78 -173l-17 19c34 28 43 38 57 56c18 25 30 55 30 74c0 16 -7 26 -24 31c-29 9 -40 20 -40 41c0 24 19 41 44 41c41 0 72 -39 72 -90c0 -50 -26 -98 -78 -145c-14 -13 -36 -29 -39 -29c-1 0 -3 1 -5 2z" />
    <glyph glyph-name="quotedblbase" unicode="&#x201e;" horiz-adv-x="444" 
d="M77 -173l-17 19c34 28 43 38 57 56c18 25 30 55 30 74c0 16 -7 26 -24 31c-29 9 -40 20 -40 41c0 24 19 41 44 41c41 0 72 -39 72 -90c0 -50 -26 -98 -78 -145c-14 -13 -36 -29 -39 -29c-1 0 -3 1 -5 2zM263 -173l-18 19c34 28 44 38 57 56c18 25 30 55 30 74
c0 17 -7 26 -26 32c-26 8 -37 20 -37 40c0 24 18 41 44 41c40 0 71 -39 71 -90c0 -50 -26 -98 -78 -145c-14 -13 -36 -29 -39 -29c-1 0 -3 1 -4 2z" />
    <glyph glyph-name="quotedblright" unicode="&#x201d;" horiz-adv-x="444" 
d="M77 403l-17 19c33 27 43 37 57 56c18 24 30 54 30 73c0 17 -7 27 -24 32c-29 8 -40 20 -40 41c0 24 19 41 44 41c41 0 72 -39 72 -90c0 -57 -39 -121 -101 -165c-2 -1 -6 -3 -12 -8c-2 -1 -3 -2 -4 -2s-3 1 -5 3zM263 403l-18 19c33 27 44 37 57 56c18 24 30 54 30 73
c0 17 -7 27 -24 32c-28 8 -39 20 -39 41c0 24 19 41 44 41c40 0 71 -39 71 -90c0 -57 -39 -120 -101 -165c-4 -3 -8 -5 -11 -8c-2 -1 -4 -2 -5 -2s-2 1 -4 3z" />
    <glyph glyph-name="guillemotright" unicode="&#xbb;" horiz-adv-x="463" 
d="M46 406l23 14l181 -180l-181 -183l-23 15l113 168zM213 406l23 14l181 -180l-181 -183l-23 15l113 168z" />
    <glyph glyph-name="ellipsis" unicode="&#x2026;" horiz-adv-x="833" 
d="M138 93c29 0 52 -24 52 -52c0 -29 -23 -52 -53 -52c-28 0 -51 24 -51 52s23 52 52 52zM416 93c29 0 52 -24 52 -52c0 -29 -23 -52 -53 -52c-28 0 -51 24 -51 52s23 52 52 52zM693 93c29 0 52 -23 52 -52s-23 -52 -53 -52c-28 0 -51 24 -51 52c0 29 23 52 52 52z" />
    <glyph glyph-name="perthousand" unicode="&#x2030;" horiz-adv-x="1000" 
d="M162 645c84 0 139 -65 139 -164c0 -106 -56 -174 -145 -174c-85 0 -140 66 -140 169c0 102 58 169 146 169zM160 601c-48 0 -79 -50 -79 -126c0 -78 29 -125 77 -125c49 0 78 48 78 129c0 73 -31 122 -76 122zM521 634h53l-435 -645h-54zM512 327c84 0 139 -65 139 -164
c0 -107 -56 -174 -145 -174c-85 0 -140 66 -140 169s57 169 146 169zM510 284c-47 0 -79 -51 -79 -127c0 -78 29 -125 77 -125c49 0 78 48 78 129c0 73 -31 123 -76 123zM846 327c83 0 138 -65 138 -164c0 -106 -56 -174 -144 -174c-86 0 -140 66 -140 169s57 169 146 169z
M843 284c-47 0 -78 -51 -78 -127c0 -78 29 -125 77 -125s77 49 77 129c0 73 -31 123 -76 123z" />
    <glyph glyph-name="questiondown" unicode="&#xbf;" horiz-adv-x="444" 
d="M344 -135l17 -46c2 -6 3 -9 3 -10c0 -8 -3 -11 -13 -16c-26 -11 -54 -17 -82 -17c-111 0 -207 94 -207 203c0 38 14 74 38 97c20 19 46 36 96 60c65 31 67 36 70 143h41c4 -57 6 -88 6 -104c0 -31 -5 -46 -21 -62c-15 -16 -20 -19 -75 -49c-79 -43 -95 -61 -95 -102
c0 -65 56 -116 128 -116c28 0 53 6 79 19h15zM287 433c27 0 50 -23 50 -50c0 -28 -23 -51 -51 -51c-27 0 -50 23 -50 51s23 50 51 50z" />
    <glyph glyph-name="grave" unicode="`" horiz-adv-x="500" 
d="M165 634l114 -163l-27 -6l-155 140v11l57 18h11z" />
    <glyph glyph-name="acute" unicode="&#xb4;" horiz-adv-x="500" 
d="M324 634h10l57 -18v-11l-156 -140l-26 6z" />
    <glyph glyph-name="circumflex" unicode="&#x2c6;" horiz-adv-x="500" 
d="M228 641h33l115 -155l-21 -17l-111 101l-110 -101l-22 17z" />
    <glyph glyph-name="tilde" unicode="&#x2dc;" horiz-adv-x="500" 
d="M385 619l22 -17c-35 -67 -66 -97 -103 -97c-20 0 -37 8 -70 30c-31 21 -39 25 -53 25c-23 0 -38 -13 -70 -59l-22 15c37 70 66 99 101 99c18 0 23 -2 67 -30c26 -17 45 -25 56 -25c25 0 49 19 72 59z" />
    <glyph glyph-name="macron" unicode="&#xaf;" horiz-adv-x="500" 
d="M120 586h258v-52h-258v52z" />
    <glyph glyph-name="macron" unicode="&#x2c9;" horiz-adv-x="500" 
d="M120 586h258v-52h-258v52z" />
    <glyph glyph-name="breve" unicode="&#x2d8;" horiz-adv-x="500" 
d="M120 629h33c11 -54 46 -84 95 -84c50 0 85 30 96 84h33v-10c0 -72 -56 -129 -129 -129c-72 0 -128 57 -128 129v10z" />
    <glyph glyph-name="dotaccent" unicode="&#x2d9;" horiz-adv-x="500" 
d="M247 592c23 0 42 -19 42 -42s-19 -42 -42 -42s-42 19 -42 42s19 42 42 42z" />
    <glyph glyph-name="dieresis" unicode="&#xa8;" horiz-adv-x="500" 
d="M150 590c22 0 40 -18 40 -40s-18 -40 -40 -40s-40 18 -40 40s18 40 40 40zM339 590c22 0 40 -18 40 -40s-18 -40 -40 -40s-40 18 -40 40s18 40 40 40z" />
    <glyph glyph-name="ring" unicode="&#x2da;" horiz-adv-x="500" 
d="M249 658c56 0 100 -41 100 -93s-44 -92 -102 -92c-54 0 -97 41 -97 92c0 52 44 93 99 93zM251 618c-30 0 -52 -22 -52 -53c0 -32 22 -55 51 -55c30 0 50 21 50 53s-21 55 -49 55z" />
    <glyph glyph-name="cedilla" unicode="&#xb8;" horiz-adv-x="500" 
d="M267 0h34l-40 -64v-10c3 -2 6 -4 8 -6c34 -23 44 -35 44 -56c0 -44 -55 -94 -104 -94c-26 0 -58 17 -58 31c0 3 0 3 4 8l17 20h13c15 -17 24 -22 41 -22c22 0 40 15 40 34c0 15 -16 29 -60 52v21z" />
    <glyph glyph-name="hungarumlaut" unicode="&#x2dd;" horiz-adv-x="500" 
d="M268 633h10l50 -15v-11l-139 -147l-27 4zM396 633h10l50 -15v-11l-139 -147l-27 4z" />
    <glyph glyph-name="ogonek" unicode="&#x2db;" horiz-adv-x="500" 
d="M395 0h37c-55 -54 -76 -87 -76 -118c0 -24 18 -38 48 -38c12 0 27 2 42 7h6l-1 -5c-2 -13 -4 -17 -12 -22c-14 -9 -42 -16 -62 -16c-47 0 -78 27 -78 68c0 39 31 80 96 124z" />
    <glyph glyph-name="caron" unicode="&#x2c7;" horiz-adv-x="500" 
d="M261 475h-33l-116 155l22 17l110 -101l111 101l21 -17z" />
    <glyph glyph-name="emdash" unicode="&#x2014;" horiz-adv-x="722" 
d="M38 260h645v-48h-645v48z" />
    <glyph glyph-name="AE" unicode="&#xc6;" horiz-adv-x="889" 
d="M420 634h440v-55h-330v-214h292v-56h-292v-251h333v-58h-409v247h-227l-163 -247h-84zM454 296v287h-8l-188 -287h196z" />
    <glyph glyph-name="ordfeminine" unicode="&#xaa;" horiz-adv-x="315" 
d="M53 449l-3 28v3c0 3 3 7 11 11c32 17 64 25 103 25c66 0 92 -23 92 -83v-4l-2 -107v-16c0 -12 2 -14 12 -14c12 0 23 3 39 10l7 -3v-23c0 -5 -2 -7 -7 -10c-18 -9 -48 -18 -63 -18c-17 0 -28 7 -35 21c-37 -13 -75 -21 -99 -21c-45 0 -73 28 -73 74c0 35 14 52 51 62
c35 10 67 16 116 22v7v25c-1 28 -16 39 -53 39c-36 0 -56 -8 -74 -32zM201 302v70c-34 -6 -59 -11 -82 -17c-22 -6 -29 -13 -29 -29c0 -23 14 -35 40 -35c19 0 37 3 71 11z" />
    <glyph glyph-name="Lslash" unicode="&#x141;" horiz-adv-x="481" 
d="M99 249l-72 -53v60l72 54v324h79v-277l133 99v-61l-133 -99v-238h319v-58h-398v249z" />
    <glyph glyph-name="Oslash" unicode="&#xd8;" horiz-adv-x="778" 
d="M573 606l55 76h48l-71 -98c76 -60 120 -155 120 -259c0 -122 -62 -236 -160 -294c-50 -29 -120 -48 -183 -48c-60 0 -120 17 -173 48l-59 -83h-47l74 105c-78 63 -124 160 -124 261c0 111 58 220 151 281c56 37 124 56 196 56c66 0 123 -15 173 -45zM227 113l299 438
c-36 27 -84 42 -139 42c-142 0 -245 -110 -245 -263c0 -82 30 -158 85 -217zM556 524l-299 -436c43 -31 91 -47 142 -47c134 0 237 116 237 267c0 79 -28 155 -80 216z" />
    <glyph glyph-name="OE" unicode="&#x152;" horiz-adv-x="981" 
d="M547 634h405v-55h-329v-214h291v-56h-291v-251h332v-58h-408v29c-60 -27 -113 -39 -173 -39c-181 0 -321 144 -321 331c0 189 145 330 339 330c53 0 96 -9 155 -32v15zM547 90v460c-50 33 -100 48 -158 48c-143 0 -247 -107 -247 -255c0 -169 110 -297 256 -297
c53 0 98 13 149 44z" />
    <glyph glyph-name="ordmasculine" unicode="&#xba;" horiz-adv-x="352" 
d="M180 516c85 0 143 -53 143 -129c0 -81 -67 -141 -156 -141c-80 0 -139 56 -139 131c0 81 64 139 152 139zM174 477c-52 0 -86 -32 -86 -81c0 -60 41 -110 90 -110c48 0 84 39 84 92c0 56 -38 99 -88 99z" />
    <glyph glyph-name="ae" unicode="&#xe6;" horiz-adv-x="685" 
d="M644 244l-266 -36c4 -114 42 -162 126 -162c45 0 84 13 126 42h7l10 -32c1 -1 1 -2 1 -2c0 -4 -3 -7 -19 -17c-51 -34 -100 -49 -157 -49c-64 0 -99 18 -135 68c-80 -50 -122 -66 -174 -66c-69 0 -107 40 -107 113c0 56 22 89 75 110c27 11 61 20 174 43l-1 14v36
c0 54 -20 73 -75 73c-51 0 -94 -18 -130 -55l-15 5l-7 50v3c0 18 108 49 173 49c58 0 88 -14 107 -50c36 36 77 52 131 52c61 0 104 -22 131 -67c17 -28 24 -63 25 -122zM378 253l185 27c-5 69 -36 108 -87 108c-63 0 -96 -45 -98 -135zM305 213
c-140 -29 -172 -48 -172 -100c0 -44 22 -67 65 -67c36 0 76 16 120 49c-10 36 -13 62 -13 118z" />
    <glyph glyph-name="dotlessi" unicode="&#x131;" horiz-adv-x="242" 
d="M85 422h72v-422h-72v422z" />
    <glyph glyph-name="lslash" unicode="&#x142;" horiz-adv-x="259" 
d="M110 311l-92 -69v58l92 68v324h72v-281l98 72v-58l-98 -72v-353h-72v311z" />
    <glyph glyph-name="oslash" unicode="&#xf8;" horiz-adv-x="555" 
d="M401 406l36 50h41l-49 -68c49 -42 76 -100 76 -168c0 -134 -102 -233 -240 -233c-39 0 -69 7 -105 26l-42 -58h-40l55 76c-54 43 -82 103 -82 174c0 132 98 228 232 228c44 0 84 -9 118 -27zM180 90l180 265c-24 19 -53 29 -85 29c-86 0 -145 -61 -145 -150
c0 -52 16 -100 50 -144zM384 331l-181 -265c24 -20 49 -29 79 -29c83 0 144 71 144 167c0 48 -13 86 -42 127z" />
    <glyph glyph-name="oe" unicode="&#x153;" horiz-adv-x="796" 
d="M757 242l-268 -37c3 -98 53 -158 132 -158c42 0 81 12 119 37h8l10 -27c1 -2 1 -3 1 -4c0 -5 -3 -8 -13 -15c-45 -32 -99 -50 -148 -50c-70 0 -119 29 -153 92c-44 -61 -108 -93 -185 -93c-120 0 -209 93 -209 218c0 131 97 228 228 228c77 0 135 -28 174 -86
c34 56 87 86 149 86c98 0 156 -72 155 -191zM488 248l190 29c-5 71 -37 111 -87 111c-61 0 -99 -51 -103 -140zM272 384c-85 0 -143 -60 -143 -149c0 -109 67 -198 149 -198c80 0 140 71 140 167c0 102 -63 180 -146 180z" />
    <glyph glyph-name="germandbls" unicode="&#xdf;" horiz-adv-x="556" 
d="M84 0v414c0 113 12 160 50 205c44 52 102 76 179 76c98 0 147 -44 147 -130c0 -34 -9 -60 -27 -82c-15 -18 -28 -28 -75 -56c-43 -26 -57 -46 -57 -77c0 -22 8 -40 22 -53c12 -12 27 -20 77 -43c86 -41 114 -72 114 -128c0 -83 -71 -138 -176 -138c-37 0 -91 9 -103 17
c-2 2 -4 5 -5 8l-9 58l15 5c34 -25 76 -39 114 -39c53 0 85 28 85 74c0 18 -8 38 -20 50c-11 11 -23 18 -58 35c-62 28 -84 42 -101 61c-18 21 -27 44 -27 73c0 52 15 71 98 124c50 32 66 56 66 99c0 58 -31 86 -96 86c-62 0 -108 -23 -126 -64c-14 -33 -15 -47 -15 -161
v-414h-72z" />
    <glyph glyph-name="onesuperior" unicode="&#xb9;" horiz-adv-x="333" 
d="M186 636h31v-382h-59v321l-82 -37h-14v37z" />
    <glyph glyph-name="logicalnot" unicode="&#xac;" horiz-adv-x="476" 
d="M373 0v187h-341v67h412v-254h-71z" />
    <glyph glyph-name="mu" unicode="&#xb5;" 
d="M454 422v-422h-71v64c-64 -55 -109 -76 -159 -76c-29 0 -49 6 -73 22v-13v-29v-35v-29v-163h-70v681h70v-209c0 -94 1 -106 12 -126c12 -23 37 -36 68 -36c42 0 100 25 153 67v304h70z" />
    <glyph glyph-name="mu" unicode="&#x3bc;" 
d="M454 422v-422h-71v64c-64 -55 -109 -76 -159 -76c-29 0 -49 6 -73 22v-13v-29v-35v-29v-163h-70v681h70v-209c0 -94 1 -106 12 -126c12 -23 37 -36 68 -36c42 0 100 25 153 67v304h70z" />
    <glyph glyph-name="trademark" unicode="&#x2122;" horiz-adv-x="741" 
d="M-25 634h307v-40h-125v-277h-58v277h-124v40zM316 634h68l109 -231l117 231h66l8 -317h-56l-4 267l-133 -263l-13 -2l-126 262l-4 -264h-49z" />
    <glyph glyph-name="Eth" unicode="&#xd0;" horiz-adv-x="722" 
d="M100 296h-91v55h91v284c97 3 161 5 223 5c141 0 200 -16 257 -71c56 -54 90 -144 90 -239c0 -105 -42 -198 -116 -259c-62 -51 -138 -71 -265 -71h-189v296zM179 296v-246h115c100 0 169 21 212 65c46 45 75 127 75 211c0 97 -40 184 -103 227c-41 28 -81 37 -167 37
c-43 0 -43 0 -112 -3l-20 -1v-235h189v-55h-189z" />
    <glyph glyph-name="onehalf" unicode="&#xbd;" horiz-adv-x="741" 
d="M170 636h31v-382h-59v321l-82 -37h-14v37zM527 634h53l-434 -643h-53zM686 51l-17 -51h-249v32c38 35 105 102 130 130c43 48 59 80 59 117c0 42 -23 67 -62 67c-47 0 -74 -19 -90 -61c-1 -4 -2 -5 -8 -5h-3c-6 0 -7 1 -9 9l-6 20l-1 8c0 5 9 19 20 30
c27 27 63 41 109 41c70 0 112 -38 112 -101c0 -41 -16 -77 -52 -118c-30 -33 -44 -47 -128 -118h195z" />
    <glyph glyph-name="plusminus" unicode="&#xb1;" 
d="M242 343v166c0 10 3 13 13 13h26c13 0 13 0 13 -13v-166h165c12 0 14 -2 14 -13v-26c0 -11 -2 -13 -14 -13h-165v-165c0 -12 -1 -13 -13 -13h-26c-10 0 -13 3 -13 13v165h-165c-11 0 -13 2 -13 13v26c0 11 2 13 13 13h165zM77 63h382c12 0 14 -2 14 -13v-26
c0 -11 -2 -13 -14 -13h-382c-11 0 -13 2 -13 13v26c0 11 2 13 13 13z" />
    <glyph glyph-name="Thorn" unicode="&#xde;" 
d="M100 634h78v-101c55 2 75 3 94 3c78 0 128 -9 164 -30c51 -30 81 -87 81 -154c0 -84 -49 -156 -124 -185c-40 -15 -83 -21 -153 -21c-25 0 -25 0 -62 1v-147h-78v634zM178 481v-279c27 -2 42 -3 65 -3c133 0 189 44 189 150c0 57 -20 96 -59 117c-24 13 -55 18 -107 18
c-22 0 -34 0 -88 -3z" />
    <glyph glyph-name="onequarter" unicode="&#xbc;" horiz-adv-x="741" 
d="M172 636h31v-382h-59v321l-82 -37h-14v37zM523 634h53l-434 -643h-53zM676 140v-42h-53v-98h-58v98h-188v39l199 244h47v-241h53zM565 140v171l-134 -171h134z" />
    <glyph glyph-name="divide" unicode="&#xf7;" 
d="M268 516c28 0 51 -22 51 -48s-23 -47 -51 -47c-27 0 -50 22 -50 47c0 26 23 48 50 48zM268 213c28 0 51 -21 51 -48c0 -26 -23 -47 -51 -47c-27 0 -50 22 -50 47c0 27 23 48 50 48zM77 343h382c12 0 14 -2 14 -13v-26c0 -11 -2 -13 -14 -13h-382c-11 0 -13 2 -13 13v26
c0 11 2 13 13 13z" />
    <glyph glyph-name="brokenbar" unicode="&#xa6;" horiz-adv-x="475" 
d="M202 634h71v-317h-71v317zM202 146h71v-305h-71v305z" />
    <glyph glyph-name="degree" unicode="&#xb0;" 
d="M269 645c83 0 151 -68 151 -152s-68 -151 -153 -151c-82 0 -150 69 -150 150c0 85 68 153 152 153zM268 594c-55 0 -99 -45 -99 -102c0 -54 45 -100 98 -100c56 0 101 45 101 100c0 57 -45 102 -100 102z" />
    <glyph glyph-name="thorn" unicode="&#xfe;" horiz-adv-x="556" 
d="M156 5v-257c0 -6 -1 -7 -8 -7h-56c-7 0 -8 1 -8 7v937c0 6 1 7 8 7h54c10 0 10 0 10 -8v-296c64 32 109 45 162 45c113 0 186 -77 186 -197c0 -83 -34 -150 -102 -196c-44 -31 -98 -48 -154 -48c-30 0 -53 3 -92 13zM156 340v-266c35 -17 67 -24 107 -24
c102 0 166 64 166 165c0 95 -60 160 -149 160c-42 0 -84 -12 -124 -35z" />
    <glyph glyph-name="threequarters" unicode="&#xbe;" horiz-adv-x="741" 
d="M104 430l-10 30c92 38 111 53 111 93c0 30 -20 51 -51 51c-35 0 -69 -21 -80 -49c-1 -4 -2 -4 -8 -4h-5c-5 0 -7 1 -8 5l-1 2l-7 21c-2 4 -2 6 -2 8c0 3 8 12 20 22c28 22 61 33 98 33c64 0 104 -31 104 -81c0 -34 -18 -60 -59 -83c56 -10 89 -47 89 -100
c0 -75 -66 -131 -155 -131c-60 0 -116 31 -116 65c0 5 2 7 8 10l15 7c6 3 6 3 10 3h4c5 0 6 0 8 -4c19 -32 41 -45 77 -45c50 0 89 39 89 89c0 41 -30 71 -71 71c-15 0 -27 -2 -60 -13zM569 634h53l-434 -643h-53zM705 140v-42h-53v-98h-58v98h-188v39l200 244h46v-241h53z
M594 140v171l-134 -171h134z" />
    <glyph glyph-name="twosuperior" unicode="&#xb2;" horiz-adv-x="333" 
d="M300 305l-16 -51h-249v32c149 139 189 192 189 246c0 43 -23 68 -62 68c-47 0 -74 -19 -90 -62c-1 -3 -2 -4 -4 -4h-4h-3c-6 0 -6 0 -9 9l-6 20l-1 8c0 5 8 18 20 29c28 28 63 42 108 42c71 0 113 -38 113 -101c0 -41 -16 -76 -52 -118c-29 -32 -30 -34 -128 -118h194z
" />
    <glyph glyph-name="registered" unicode="&#xae;" horiz-adv-x="766" 
d="M254 499h26l35 1c24 1 40 1 46 1c53 0 81 -4 101 -16c26 -16 43 -48 43 -84c0 -46 -27 -80 -80 -100c71 -115 93 -139 140 -148l-5 -18c-1 -3 -9 -4 -25 -4c-72 0 -95 21 -172 155c-12 -3 -16 -3 -27 -3c-4 0 -8 0 -15 1v-150h-67v365zM321 458v-133c8 -2 14 -2 23 -2
c64 0 92 22 92 73c0 46 -22 64 -77 64c-10 0 -27 -1 -38 -2zM388 645c181 0 333 -150 333 -328c0 -181 -151 -328 -338 -328c-188 0 -338 147 -338 330c0 181 153 326 343 326zM388 599c-88 0 -160 -31 -217 -93c-47 -52 -74 -120 -74 -188c0 -161 127 -289 286 -289
c158 0 286 128 286 287c0 155 -128 283 -281 283z" />
    <glyph glyph-name="minus" unicode="&#x2212;" 
d="M77 343h382c12 0 14 -2 14 -13v-26c0 -11 -2 -13 -14 -13h-382c-11 0 -13 2 -13 13v26c0 11 2 13 13 13z" />
    <glyph glyph-name="eth" unicode="&#xf0;" horiz-adv-x="555" 
d="M242 664l51 28c14 -23 18 -29 46 -79l81 43l22 -42l-81 -43c111 -196 144 -279 144 -359c0 -77 -45 -154 -113 -193c-36 -20 -82 -32 -127 -32c-123 0 -214 92 -214 217c0 84 39 155 107 195c35 21 80 34 119 34c37 0 68 -10 99 -31c-22 48 -44 92 -70 140l-82 -44
l-22 42l82 43c-15 31 -21 41 -42 81zM277 383c-88 0 -147 -60 -147 -149c0 -108 69 -197 152 -197s144 71 144 167c0 102 -65 179 -149 179z" />
    <glyph glyph-name="multiply" unicode="&#xd7;" 
d="M232 317l-137 137c-3 3 -6 7 -6 9c0 1 3 7 6 9l18 19c8 6 8 7 10 7s3 -1 9 -7l137 -137l136 137c4 3 8 6 10 6s5 -2 9 -6l19 -19c4 -3 6 -7 6 -9s-2 -4 -7 -9l-136 -137l136 -136c5 -5 7 -8 7 -9c0 -2 -1 -3 -7 -10l-18 -19c-4 -4 -8 -6 -10 -6c-1 0 -4 2 -9 7l-136 136
l-137 -136c-5 -6 -7 -7 -9 -7s-6 3 -9 6l-19 19c-4 4 -6 7 -6 10c0 2 2 4 6 9z" />
    <glyph glyph-name="threesuperior" unicode="&#xb3;" horiz-adv-x="333" 
d="M101 430l-10 30c92 38 111 53 111 93c0 30 -20 51 -51 51c-35 0 -69 -21 -80 -49c-1 -4 -2 -4 -8 -4h-5c-5 0 -7 1 -8 5l-1 2l-7 21c-2 4 -2 6 -2 8c0 3 8 12 20 22c28 22 61 33 98 33c64 0 104 -31 104 -81c0 -34 -18 -60 -59 -83c56 -10 89 -47 89 -100
c0 -75 -66 -131 -155 -131c-60 0 -116 31 -116 65c0 5 2 7 8 10l15 7c6 3 6 3 10 3h4c5 0 6 0 8 -4c19 -32 41 -45 77 -45c50 0 89 39 89 89c0 41 -30 71 -71 71c-15 0 -27 -2 -60 -13z" />
    <glyph glyph-name="copyright" unicode="&#xa9;" horiz-adv-x="766" 
d="M525 485l-3 -25c-1 -6 -1 -7 -1 -9c0 -1 -2 -3 -3 -3l-3 -2c-1 -1 -3 -1 -4 -1s-1 0 -7 2c-23 9 -64 16 -92 16c-81 0 -134 -58 -134 -145c0 -85 55 -145 132 -145c30 0 78 8 98 17h2l3 -1l2 -3c2 -1 3 -3 3 -4l-1 -9l-4 -25c-1 -4 -3 -6 -8 -7c-20 -7 -69 -13 -103 -13
c-48 0 -88 10 -119 31c-48 31 -79 90 -79 151c0 63 32 123 87 159c38 26 81 37 137 37c53 0 97 -9 97 -20v-1zM388 645c181 0 333 -150 333 -328c0 -181 -151 -328 -338 -328c-188 0 -338 147 -338 330c0 181 153 326 343 326zM388 599c-88 0 -160 -31 -217 -93
c-47 -52 -74 -120 -74 -188c0 -161 127 -289 286 -289c158 0 286 128 286 287c0 155 -128 283 -281 283z" />
    <glyph glyph-name="Aacute" unicode="&#xc1;" horiz-adv-x="611" 
d="M299 634h62l245 -634h-85l-75 205h-276l-85 -205h-80zM427 254l-111 298l-125 -298h236zM422 849l14 -1l58 -30l-2 -13l-194 -120l-27 11z" />
    <glyph glyph-name="Acircumflex" unicode="&#xc2;" horiz-adv-x="611" 
d="M299 634h62l245 -634h-85l-75 205h-276l-85 -205h-80zM427 254l-111 298l-125 -298h236zM306 856h33l137 -157l-24 -20l-129 106l-129 -106l-25 20z" />
    <glyph glyph-name="Adieresis" unicode="&#xc4;" horiz-adv-x="611" 
d="M299 634h62l245 -634h-85l-75 205h-276l-85 -205h-80zM427 254l-111 298l-125 -298h236zM213 791c24 0 43 -20 43 -44s-19 -43 -44 -43c-23 0 -43 20 -43 43c0 24 20 44 44 44zM428 791c24 0 44 -20 44 -44s-20 -43 -44 -43c-23 0 -43 20 -43 43c0 24 19 44 43 44z" />
    <glyph glyph-name="Agrave" unicode="&#xc0;" horiz-adv-x="611" 
d="M299 634h62l245 -634h-85l-75 205h-276l-85 -205h-80zM427 254l-111 298l-125 -298h236zM226 849l151 -153l-27 -11l-194 120l-2 13l58 30z" />
    <glyph glyph-name="Aring" unicode="&#xc5;" horiz-adv-x="611" 
d="M299 634h62l245 -634h-85l-75 205h-276l-85 -205h-80zM427 254l-111 298l-125 -298h236zM328 880c56 0 102 -43 102 -96c0 -54 -45 -95 -105 -95c-56 0 -100 42 -100 95s46 96 103 96zM329 839c-31 0 -53 -23 -53 -56c0 -32 22 -56 52 -56c31 0 51 22 51 55
s-21 57 -50 57z" />
    <glyph glyph-name="Atilde" unicode="&#xc3;" horiz-adv-x="611" 
d="M299 634h62l245 -634h-85l-75 205h-276l-85 -205h-80zM427 254l-111 298l-125 -298h236zM471 814l23 -17c-37 -58 -69 -83 -108 -83c-20 0 -38 5 -72 22c-33 15 -41 18 -55 18c-24 0 -40 -10 -73 -45l-23 16c38 61 69 86 105 86c18 0 25 -2 70 -22c27 -12 47 -18 59 -18
c25 0 49 14 74 43z" />
    <glyph glyph-name="Ccedilla" unicode="&#xc7;" horiz-adv-x="648" 
d="M417 -11l-35 -55v-10c3 -2 4 -3 9 -6c36 -25 45 -36 45 -57c0 -47 -56 -98 -108 -98c-26 0 -59 17 -59 31c0 4 1 5 4 9l17 21h14c15 -18 24 -23 41 -23c24 0 43 16 43 35c0 16 -16 29 -63 54v22l56 77c-62 1 -105 10 -149 30c-109 48 -180 161 -180 285
c0 111 57 215 152 277c66 44 142 64 242 64c61 0 138 -11 166 -23c6 -2 8 -5 8 -11v-3l-6 -43c-1 -8 -1 -9 -5 -11l-6 -3c-2 -1 -5 -2 -7 -2c-1 0 -1 0 -14 6c-41 21 -112 37 -167 37c-166 0 -274 -108 -274 -275c0 -88 28 -157 87 -210c49 -46 109 -68 180 -68
c58 0 132 16 173 37c10 5 12 6 13 6c0 0 4 -2 5 -3l5 -3c2 -3 3 -4 3 -6v-4l-8 -42c-2 -8 -5 -10 -20 -15c-41 -11 -103 -19 -162 -20z" />
    <glyph glyph-name="Eacute" unicode="&#xc9;" 
d="M100 634h409v-55h-331v-214h293v-56h-293v-251h333v-58h-411v634zM380 849l14 -1l58 -30l-2 -13l-194 -120l-27 11z" />
    <glyph glyph-name="Ecircumflex" unicode="&#xca;" 
d="M100 634h409v-55h-331v-214h293v-56h-293v-251h333v-58h-411v634zM280 856h33l137 -157l-24 -20l-129 106l-129 -106l-25 20z" />
    <glyph glyph-name="Edieresis" unicode="&#xcb;" 
d="M100 634h409v-55h-331v-214h293v-56h-293v-251h333v-58h-411v634zM194 791c24 0 43 -20 43 -44s-19 -43 -44 -43c-23 0 -43 20 -43 43c0 24 20 44 44 44zM409 791c24 0 44 -20 44 -44s-20 -43 -44 -43c-23 0 -43 20 -43 43c0 24 19 44 43 44z" />
    <glyph glyph-name="Egrave" unicode="&#xc8;" 
d="M100 634h409v-55h-331v-214h293v-56h-293v-251h333v-58h-411v634zM217 849l151 -153l-27 -11l-194 120l-2 13l58 30z" />
    <glyph glyph-name="Iacute" unicode="&#xcd;" horiz-adv-x="278" 
d="M99 634h78v-634h-78v634zM233 849l14 -1l58 -30l-2 -13l-194 -120l-27 11z" />
    <glyph glyph-name="Icircumflex" unicode="&#xce;" horiz-adv-x="278" 
d="M100 634h79v-634h-79v634zM123 856h32l121 -157l-25 -20l-112 106l-112 -106l-25 20z" />
    <glyph glyph-name="Idieresis" unicode="&#xcf;" horiz-adv-x="278" 
d="M100 634h78v-634h-78v634zM58 791c24 0 43 -20 43 -44s-19 -43 -44 -43c-23 0 -43 20 -43 43c0 24 20 44 44 44zM217 791c25 0 44 -20 44 -44s-19 -43 -44 -43c-23 0 -43 20 -43 43c0 24 20 44 43 44z" />
    <glyph glyph-name="Igrave" unicode="&#xcc;" horiz-adv-x="278" 
d="M100 634h78v-634h-78v634zM42 849l151 -153l-27 -11l-194 120l-2 13l58 30z" />
    <glyph glyph-name="Ntilde" unicode="&#xd1;" horiz-adv-x="722" 
d="M85 634h59l432 -504l-14 504h70l-1 -631l-34 -12l-457 528l15 -519h-70v634zM518 814l23 -17c-37 -58 -69 -83 -108 -83c-20 0 -38 5 -72 22c-33 15 -41 18 -55 18c-24 0 -40 -10 -73 -45l-23 16c38 61 69 86 105 86c18 0 25 -2 70 -22c27 -12 47 -18 59 -18
c25 0 49 14 74 43z" />
    <glyph glyph-name="Oacute" unicode="&#xd3;" horiz-adv-x="778" 
d="M404 651c185 0 321 -138 321 -326c0 -122 -62 -236 -160 -294c-50 -30 -120 -48 -183 -48c-183 0 -329 147 -329 330c0 112 60 224 151 282c61 38 124 56 200 56zM390 593c-146 0 -248 -108 -248 -263c0 -161 114 -289 256 -289c135 0 238 116 238 266
c0 81 -32 166 -84 221c-40 42 -97 65 -162 65zM483 849l14 -1l58 -30l-2 -13l-194 -120l-27 11z" />
    <glyph glyph-name="Ocircumflex" unicode="&#xd4;" horiz-adv-x="778" 
d="M404 651c185 0 321 -138 321 -326c0 -122 -62 -236 -160 -294c-50 -30 -120 -48 -183 -48c-183 0 -329 147 -329 330c0 112 60 224 151 282c61 38 124 56 200 56zM390 593c-146 0 -248 -108 -248 -263c0 -161 114 -289 256 -289c135 0 238 116 238 266
c0 81 -32 166 -84 221c-40 42 -97 65 -162 65zM372 856h33l137 -157l-24 -20l-129 106l-129 -106l-25 20z" />
    <glyph glyph-name="Odieresis" unicode="&#xd6;" horiz-adv-x="778" 
d="M404 651c185 0 321 -138 321 -326c0 -122 -62 -236 -160 -294c-50 -30 -120 -48 -183 -48c-183 0 -329 147 -329 330c0 112 60 224 151 282c61 38 124 56 200 56zM390 593c-146 0 -248 -108 -248 -263c0 -161 114 -289 256 -289c135 0 238 116 238 266
c0 81 -32 166 -84 221c-40 42 -97 65 -162 65zM280 791c24 0 43 -20 43 -44s-19 -43 -44 -43c-23 0 -43 20 -43 43c0 24 20 44 44 44zM495 791c24 0 44 -20 44 -44s-20 -43 -44 -43c-23 0 -43 20 -43 43c0 24 19 44 43 44z" />
    <glyph glyph-name="Ograve" unicode="&#xd2;" horiz-adv-x="778" 
d="M404 651c185 0 321 -138 321 -326c0 -122 -62 -236 -160 -294c-50 -30 -120 -48 -183 -48c-183 0 -329 147 -329 330c0 112 60 224 151 282c61 38 124 56 200 56zM390 593c-146 0 -248 -108 -248 -263c0 -161 114 -289 256 -289c135 0 238 116 238 266
c0 81 -32 166 -84 221c-40 42 -97 65 -162 65zM292 849l151 -153l-27 -11l-194 120l-2 13l58 30z" />
    <glyph glyph-name="Otilde" unicode="&#xd5;" horiz-adv-x="778" 
d="M404 651c185 0 321 -138 321 -326c0 -122 -62 -236 -160 -294c-50 -30 -120 -48 -183 -48c-183 0 -329 147 -329 330c0 112 60 224 151 282c61 38 124 56 200 56zM390 593c-146 0 -248 -108 -248 -263c0 -161 114 -289 256 -289c135 0 238 116 238 266
c0 81 -32 166 -84 221c-40 42 -97 65 -162 65zM532 814l23 -17c-37 -58 -69 -83 -108 -83c-20 0 -38 5 -72 22c-33 15 -41 18 -55 18c-24 0 -40 -10 -73 -45l-23 16c38 61 69 86 105 86c18 0 25 -2 70 -22c27 -12 47 -18 59 -18c25 0 49 14 74 43z" />
    <glyph glyph-name="Scaron" unicode="&#x160;" horiz-adv-x="500" 
d="M418 616l9 -55c0 -2 0 -2 1 -4c0 -1 -2 -2 -3 -3l-11 -5c-3 -1 -3 -1 -4 -1c-2 0 -4 1 -10 6c-32 22 -90 39 -136 39c-80 0 -132 -42 -132 -106c0 -30 11 -54 34 -71s35 -24 112 -57c73 -31 106 -50 134 -78s44 -66 44 -107c0 -110 -97 -185 -239 -185
c-48 0 -133 12 -163 23c-11 4 -16 7 -17 13l-9 56v5c0 2 1 4 4 5l8 4l5 1c1 0 3 -1 7 -3c43 -27 119 -47 178 -47c87 0 147 46 147 112c0 25 -10 52 -27 69c-20 21 -47 36 -109 62c-87 37 -108 48 -137 73c-31 27 -48 65 -48 109c0 106 90 175 229 175c39 0 101 -9 122 -18
c7 -2 10 -6 11 -12zM266 692h-33l-137 157l25 20l129 -106l129 106l24 -20z" />
    <glyph glyph-name="Uacute" unicode="&#xda;" horiz-adv-x="685" 
d="M84 634h78v-316c0 -150 3 -174 22 -207c23 -36 83 -59 157 -59c80 0 145 31 171 82c14 29 20 84 20 184v316h70v-316c0 -149 -15 -211 -63 -258c-46 -45 -126 -71 -219 -71c-107 0 -179 32 -211 93c-23 45 -25 59 -25 236v316zM437 849l14 -1l58 -30l-2 -13l-194 -120
l-27 11z" />
    <glyph glyph-name="Ucircumflex" unicode="&#xdb;" horiz-adv-x="685" 
d="M84 634h78v-316c0 -150 3 -174 22 -207c23 -36 83 -59 157 -59c80 0 145 31 171 82c14 29 20 84 20 184v316h70v-316c0 -149 -15 -211 -63 -258c-46 -45 -126 -71 -219 -71c-107 0 -179 32 -211 93c-23 45 -25 59 -25 236v316zM326 856h33l137 -157l-24 -20l-129 106
l-129 -106l-25 20z" />
    <glyph glyph-name="Udieresis" unicode="&#xdc;" horiz-adv-x="685" 
d="M84 634h78v-316c0 -150 3 -174 22 -207c23 -36 83 -59 157 -59c80 0 145 31 171 82c14 29 20 84 20 184v316h70v-316c0 -149 -15 -211 -63 -258c-46 -45 -126 -71 -219 -71c-107 0 -179 32 -211 93c-23 45 -25 59 -25 236v316zM234 791c24 0 43 -20 43 -44
s-19 -43 -44 -43c-23 0 -43 20 -43 43c0 24 20 44 44 44zM449 791c24 0 44 -20 44 -44s-20 -43 -44 -43c-23 0 -43 20 -43 43c0 24 19 44 43 44z" />
    <glyph glyph-name="Ugrave" unicode="&#xd9;" horiz-adv-x="685" 
d="M84 634h78v-316c0 -150 3 -174 22 -207c23 -36 83 -59 157 -59c80 0 145 31 171 82c14 29 20 84 20 184v316h70v-316c0 -149 -15 -211 -63 -258c-46 -45 -126 -71 -219 -71c-107 0 -179 32 -211 93c-23 45 -25 59 -25 236v316zM246 849l151 -153l-27 -11l-194 120l-2 13
l58 30z" />
    <glyph glyph-name="Yacute" unicode="&#xdd;" horiz-adv-x="463" 
d="M-32 634h90l180 -303l188 303h88l-250 -355v-279h-79v275zM335 849l14 -1l58 -30l-2 -13l-194 -120l-27 11z" />
    <glyph glyph-name="Ydieresis" unicode="&#x178;" horiz-adv-x="463" 
d="M-32 634h90l180 -303l188 303h88l-250 -355v-279h-79v275zM132 791c24 0 43 -20 43 -44s-19 -43 -44 -43c-23 0 -43 20 -43 43c0 24 20 44 44 44zM347 791c24 0 44 -20 44 -44s-20 -43 -44 -43c-23 0 -43 20 -43 43c0 24 19 44 43 44z" />
    <glyph glyph-name="Zcaron" unicode="&#x17d;" horiz-adv-x="555" 
d="M51 634h492v-33l-419 -543h419l-9 -58h-522v35l425 544h-386v55zM294 692h-33l-137 157l25 20l129 -106l129 106l24 -20z" />
    <glyph glyph-name="aacute" unicode="&#xe1;" horiz-adv-x="500" 
d="M91 329l-4 45v2c3 8 3 8 10 12c41 28 105 45 164 45c51 0 91 -13 113 -36c15 -15 28 -56 27 -83l-1 -22l-3 -184v-26c0 -26 6 -34 25 -34c17 0 36 6 60 18l4 -2v-33c0 -5 -2 -8 -7 -11c-25 -15 -73 -30 -96 -30c-25 0 -40 12 -47 38c-65 -25 -123 -38 -164 -38
c-69 0 -109 44 -109 118c0 57 21 84 77 100c53 15 116 28 190 37v19c0 67 -1 73 -14 88c-15 18 -41 26 -80 26c-59 0 -92 -15 -122 -53zM329 69v134c-55 -7 -94 -15 -144 -30c-42 -12 -52 -23 -52 -57c0 -46 25 -70 74 -70c34 0 69 7 122 23zM313 634h10l57 -18v-11
l-156 -140l-26 6z" />
    <glyph glyph-name="acircumflex" unicode="&#xe2;" horiz-adv-x="500" 
d="M91 329l-4 45v2c3 8 3 8 10 12c41 28 105 45 164 45c51 0 91 -13 113 -36c15 -15 28 -56 27 -83l-1 -22l-3 -184v-26c0 -26 6 -34 25 -34c17 0 36 6 60 18l4 -2v-33c0 -5 -2 -8 -7 -11c-25 -15 -73 -30 -96 -30c-25 0 -40 12 -47 38c-65 -25 -123 -38 -164 -38
c-69 0 -109 44 -109 118c0 57 21 84 77 100c53 15 116 28 190 37v19c0 67 -1 73 -14 88c-15 18 -41 26 -80 26c-59 0 -92 -15 -122 -53zM329 69v134c-55 -7 -94 -15 -144 -30c-42 -12 -52 -23 -52 -57c0 -46 25 -70 74 -70c34 0 69 7 122 23zM234 641h33l115 -155l-21 -17
l-111 101l-110 -101l-22 17z" />
    <glyph glyph-name="adieresis" unicode="&#xe4;" horiz-adv-x="500" 
d="M91 329l-4 45v2c3 8 3 8 10 12c41 28 105 45 164 45c51 0 91 -13 113 -36c15 -15 28 -56 27 -83l-1 -22l-3 -184v-26c0 -26 6 -34 25 -34c17 0 36 6 60 18l4 -2v-33c0 -5 -2 -8 -7 -11c-25 -15 -73 -30 -96 -30c-25 0 -40 12 -47 38c-65 -25 -123 -38 -164 -38
c-69 0 -109 44 -109 118c0 57 21 84 77 100c53 15 116 28 190 37v19c0 67 -1 73 -14 88c-15 18 -41 26 -80 26c-59 0 -92 -15 -122 -53zM329 69v134c-55 -7 -94 -15 -144 -30c-42 -12 -52 -23 -52 -57c0 -46 25 -70 74 -70c34 0 69 7 122 23zM154 590c22 0 40 -18 40 -40
s-18 -40 -40 -40s-40 18 -40 40s18 40 40 40zM343 590c22 0 40 -18 40 -40s-18 -40 -40 -40s-40 18 -40 40s18 40 40 40z" />
    <glyph glyph-name="agrave" unicode="&#xe0;" horiz-adv-x="500" 
d="M91 329l-4 45v2c3 8 3 8 10 12c41 28 105 45 164 45c51 0 91 -13 113 -36c15 -15 28 -56 27 -83l-1 -22l-3 -184v-26c0 -26 6 -34 25 -34c17 0 36 6 60 18l4 -2v-33c0 -5 -2 -8 -7 -11c-25 -15 -73 -30 -96 -30c-25 0 -40 12 -47 38c-65 -25 -123 -38 -164 -38
c-69 0 -109 44 -109 118c0 57 21 84 77 100c53 15 116 28 190 37v19c0 67 -1 73 -14 88c-15 18 -41 26 -80 26c-59 0 -92 -15 -122 -53zM329 69v134c-55 -7 -94 -15 -144 -30c-42 -12 -52 -23 -52 -57c0 -46 25 -70 74 -70c34 0 69 7 122 23zM199 634l114 -163l-27 -6
l-155 140v11l57 18h11z" />
    <glyph glyph-name="aring" unicode="&#xe5;" horiz-adv-x="500" 
d="M91 329l-4 45v2c3 8 3 8 10 12c41 28 105 45 164 45c51 0 91 -13 113 -36c15 -15 28 -56 27 -83l-1 -22l-3 -184v-26c0 -26 6 -34 25 -34c17 0 36 6 60 18l4 -2v-33c0 -5 -2 -8 -7 -11c-25 -15 -73 -30 -96 -30c-25 0 -40 12 -47 38c-65 -25 -123 -38 -164 -38
c-69 0 -109 44 -109 118c0 57 21 84 77 100c53 15 116 28 190 37v19c0 67 -1 73 -14 88c-15 18 -41 26 -80 26c-59 0 -92 -15 -122 -53zM329 69v134c-55 -7 -94 -15 -144 -30c-42 -12 -52 -23 -52 -57c0 -46 25 -70 74 -70c34 0 69 7 122 23zM249 658c56 0 100 -41 100 -93
s-44 -92 -102 -92c-54 0 -97 41 -97 92c0 52 44 93 99 93zM251 618c-30 0 -52 -22 -52 -53c0 -32 22 -55 51 -55c30 0 50 21 50 53s-21 55 -49 55z" />
    <glyph glyph-name="atilde" unicode="&#xe3;" horiz-adv-x="500" 
d="M91 329l-4 45v2c3 8 3 8 10 12c41 28 105 45 164 45c51 0 91 -13 113 -36c15 -15 28 -56 27 -83l-1 -22l-3 -184v-26c0 -26 6 -34 25 -34c17 0 36 6 60 18l4 -2v-33c0 -5 -2 -8 -7 -11c-25 -15 -73 -30 -96 -30c-25 0 -40 12 -47 38c-65 -25 -123 -38 -164 -38
c-69 0 -109 44 -109 118c0 57 21 84 77 100c53 15 116 28 190 37v19c0 67 -1 73 -14 88c-15 18 -41 26 -80 26c-59 0 -92 -15 -122 -53zM329 69v134c-55 -7 -94 -15 -144 -30c-42 -12 -52 -23 -52 -57c0 -46 25 -70 74 -70c34 0 69 7 122 23zM387 619l22 -17
c-35 -67 -66 -97 -103 -97c-20 0 -37 8 -70 30c-31 21 -39 25 -53 25c-23 0 -38 -13 -70 -59l-22 15c37 70 66 99 101 99c18 0 23 -2 67 -30c26 -17 45 -25 56 -25c25 0 49 19 72 59z" />
    <glyph glyph-name="ccedilla" unicode="&#xe7;" horiz-adv-x="444" 
d="M388 345h-16c-31 25 -56 34 -93 34c-93 0 -150 -62 -150 -163s60 -170 146 -170c46 0 92 15 135 45l7 -4v-31c0 -5 -1 -8 -7 -12c-28 -22 -82 -44 -124 -52l-35 -56v-10c3 -2 6 -4 8 -6c35 -23 44 -35 44 -55c0 -46 -54 -95 -103 -95c-26 0 -58 17 -58 30c0 4 1 5 4 9
l16 20h13c14 -16 25 -22 41 -22c23 0 41 15 41 34c0 15 -16 29 -61 52v21l52 74l-2 -1h-3c-26 -3 -84 14 -111 33c-53 37 -82 98 -82 170c0 80 34 147 101 193c46 33 100 50 156 50c44 0 84 -12 109 -34c5 -4 5 -5 5 -17s0 -14 -5 -17z" />
    <glyph glyph-name="eacute" unicode="&#xe9;" horiz-adv-x="444" 
d="M405 242l-274 -37c4 -100 54 -159 135 -159c43 0 84 13 122 38h9l10 -30c0 -7 -1 -7 -9 -13c-53 -36 -104 -54 -157 -54c-115 0 -191 87 -191 218c0 133 82 229 197 229c99 0 159 -73 158 -192zM130 248l196 29c-5 70 -38 111 -90 111c-63 0 -102 -52 -106 -140zM302 634
h10l57 -18v-11l-156 -140l-26 6z" />
    <glyph glyph-name="ecircumflex" unicode="&#xea;" horiz-adv-x="444" 
d="M405 242l-274 -37c4 -100 54 -159 135 -159c43 0 84 13 122 38h9l10 -30c0 -7 -1 -7 -9 -13c-53 -36 -104 -54 -157 -54c-115 0 -191 87 -191 218c0 133 82 229 197 229c99 0 159 -73 158 -192zM130 248l196 29c-5 70 -38 111 -90 111c-63 0 -102 -52 -106 -140zM223 641
h33l115 -155l-21 -17l-111 101l-110 -101l-22 17z" />
    <glyph glyph-name="edieresis" unicode="&#xeb;" horiz-adv-x="444" 
d="M405 242l-274 -37c4 -100 54 -159 135 -159c43 0 84 13 122 38h9l10 -30c0 -7 -1 -7 -9 -13c-53 -36 -104 -54 -157 -54c-115 0 -191 87 -191 218c0 133 82 229 197 229c99 0 159 -73 158 -192zM130 248l196 29c-5 70 -38 111 -90 111c-63 0 -102 -52 -106 -140zM155 590
c22 0 40 -18 40 -40s-18 -40 -40 -40s-40 18 -40 40s18 40 40 40zM344 590c22 0 40 -18 40 -40s-18 -40 -40 -40s-40 18 -40 40s18 40 40 40z" />
    <glyph glyph-name="egrave" unicode="&#xe8;" horiz-adv-x="444" 
d="M405 242l-274 -37c4 -100 54 -159 135 -159c43 0 84 13 122 38h9l10 -30c0 -7 -1 -7 -9 -13c-53 -36 -104 -54 -157 -54c-115 0 -191 87 -191 218c0 133 82 229 197 229c99 0 159 -73 158 -192zM130 248l196 29c-5 70 -38 111 -90 111c-63 0 -102 -52 -106 -140zM171 634
l114 -163l-27 -6l-155 140v11l57 18h11z" />
    <glyph glyph-name="iacute" unicode="&#xed;" horiz-adv-x="241" 
d="M84 422h72v-422h-72v422zM200 634h10l57 -18v-11l-156 -140l-26 6z" />
    <glyph glyph-name="icircumflex" unicode="&#xee;" horiz-adv-x="241" 
d="M84 422h72v-422h-72v422zM104 641h33l98 -155l-22 -17l-93 101l-93 -101l-22 17z" />
    <glyph glyph-name="idieresis" unicode="&#xef;" horiz-adv-x="241" 
d="M84 422h72v-422h-72v422zM53 590c22 0 40 -18 40 -40s-18 -40 -40 -40s-40 18 -40 40s18 40 40 40zM185 590c22 0 40 -18 40 -40s-18 -40 -40 -40s-40 18 -40 40s18 40 40 40z" />
    <glyph glyph-name="igrave" unicode="&#xec;" horiz-adv-x="241" 
d="M84 422h72v-422h-72v422zM41 634l114 -163l-27 -6l-155 140v11l57 18h11z" />
    <glyph glyph-name="ntilde" unicode="&#xf1;" 
d="M84 422h72v-65c71 55 120 76 179 76c49 0 85 -18 105 -52c14 -25 16 -43 16 -128v-253h-72v245c0 65 -1 74 -11 92c-11 22 -33 34 -61 34c-44 0 -101 -25 -156 -68v-303h-72v422zM416 611l22 -17c-35 -67 -66 -97 -103 -97c-20 0 -37 8 -70 30c-31 21 -39 25 -53 25
c-23 0 -38 -13 -70 -59l-22 15c37 70 66 99 101 99c18 0 23 -2 67 -30c26 -17 45 -25 56 -25c25 0 49 19 72 59z" />
    <glyph glyph-name="oacute" unicode="&#xf3;" horiz-adv-x="555" 
d="M285 433c131 0 220 -86 220 -212c0 -134 -102 -234 -240 -234c-123 0 -214 92 -214 217c0 133 98 229 234 229zM277 384c-88 0 -147 -60 -147 -149c0 -109 69 -198 152 -198s144 71 144 167c0 102 -65 180 -149 180zM358 634h10l57 -18v-11l-156 -140l-26 6z" />
    <glyph glyph-name="ocircumflex" unicode="&#xf4;" horiz-adv-x="555" 
d="M285 433c131 0 220 -86 220 -212c0 -134 -102 -234 -240 -234c-123 0 -214 92 -214 217c0 133 98 229 234 229zM277 384c-88 0 -147 -60 -147 -149c0 -109 69 -198 152 -198s144 71 144 167c0 102 -65 180 -149 180zM262 641h33l115 -155l-21 -17l-111 101l-110 -101
l-22 17z" />
    <glyph glyph-name="odieresis" unicode="&#xf6;" horiz-adv-x="555" 
d="M285 433c131 0 220 -86 220 -212c0 -134 -102 -234 -240 -234c-123 0 -214 92 -214 217c0 133 98 229 234 229zM277 384c-88 0 -147 -60 -147 -149c0 -109 69 -198 152 -198s144 71 144 167c0 102 -65 180 -149 180zM182 590c22 0 40 -18 40 -40s-18 -40 -40 -40
s-40 18 -40 40s18 40 40 40zM371 590c22 0 40 -18 40 -40s-18 -40 -40 -40s-40 18 -40 40s18 40 40 40z" />
    <glyph glyph-name="ograve" unicode="&#xf2;" horiz-adv-x="555" 
d="M285 433c131 0 220 -86 220 -212c0 -134 -102 -234 -240 -234c-123 0 -214 92 -214 217c0 133 98 229 234 229zM277 384c-88 0 -147 -60 -147 -149c0 -109 69 -198 152 -198s144 71 144 167c0 102 -65 180 -149 180zM199 634l114 -163l-27 -6l-155 140v11l57 18h11z" />
    <glyph glyph-name="otilde" unicode="&#xf5;" horiz-adv-x="555" 
d="M285 433c131 0 220 -86 220 -212c0 -134 -102 -234 -240 -234c-123 0 -214 92 -214 217c0 133 98 229 234 229zM277 384c-88 0 -147 -60 -147 -149c0 -109 69 -198 152 -198s144 71 144 167c0 102 -65 180 -149 180zM420 619l22 -17c-35 -67 -66 -97 -103 -97
c-20 0 -37 8 -70 30c-31 21 -39 25 -53 25c-23 0 -38 -13 -70 -59l-22 15c37 70 66 99 101 99c18 0 23 -2 67 -30c26 -17 45 -25 56 -25c25 0 49 19 72 59z" />
    <glyph glyph-name="scaron" unicode="&#x161;" horiz-adv-x="389" 
d="M329 358l-17 -8c-38 25 -65 34 -102 34c-51 0 -86 -24 -86 -60c0 -33 20 -49 104 -80c57 -21 74 -30 95 -48c22 -20 33 -46 33 -78c0 -78 -72 -130 -181 -130c-35 0 -85 8 -112 19c-5 1 -6 3 -7 9l-11 57l18 9c44 -29 80 -41 127 -41c59 0 94 25 94 66
c0 35 -19 51 -91 77c-53 19 -72 27 -94 41c-28 19 -46 51 -46 85c0 73 68 123 168 123c33 0 78 -6 93 -13c3 -1 5 -4 6 -8zM212 475h-33l-116 155l22 17l110 -101l111 101l21 -17z" />
    <glyph glyph-name="uacute" unicode="&#xfa;" 
d="M454 422v-422h-72v64c-69 -55 -116 -76 -171 -76c-57 0 -99 26 -118 75c-10 27 -12 49 -12 150v209h72v-209c0 -94 1 -106 11 -126c12 -23 37 -36 67 -36c41 0 98 25 151 67v304h72zM348 634h10l57 -18v-11l-156 -140l-26 6z" />
    <glyph glyph-name="ucircumflex" unicode="&#xfb;" 
d="M454 422v-422h-72v64c-69 -55 -116 -76 -171 -76c-57 0 -99 26 -118 75c-10 27 -12 49 -12 150v209h72v-209c0 -94 1 -106 11 -126c12 -23 37 -36 67 -36c41 0 98 25 151 67v304h72zM252 641h33l115 -155l-21 -17l-111 101l-110 -101l-22 17z" />
    <glyph glyph-name="udieresis" unicode="&#xfc;" 
d="M454 422v-422h-72v64c-69 -55 -116 -76 -171 -76c-57 0 -99 26 -118 75c-10 27 -12 49 -12 150v209h72v-209c0 -94 1 -106 11 -126c12 -23 37 -36 67 -36c41 0 98 25 151 67v304h72zM173 590c22 0 40 -18 40 -40s-18 -40 -40 -40s-40 18 -40 40s18 40 40 40zM362 590
c22 0 40 -18 40 -40s-18 -40 -40 -40s-40 18 -40 40s18 40 40 40z" />
    <glyph glyph-name="ugrave" unicode="&#xf9;" 
d="M454 422v-422h-72v64c-69 -55 -116 -76 -171 -76c-57 0 -99 26 -118 75c-10 27 -12 49 -12 150v209h72v-209c0 -94 1 -106 11 -126c12 -23 37 -36 67 -36c41 0 98 25 151 67v304h72zM189 634l114 -163l-27 -6l-155 140v11l57 18h11z" />
    <glyph glyph-name="yacute" unicode="&#xfd;" horiz-adv-x="407" 
d="M11 422h83l111 -345l150 345h73l-338 -681l-65 23l137 233zM283 634h10l57 -18v-11l-156 -140l-26 6z" />
    <glyph glyph-name="ydieresis" unicode="&#xff;" horiz-adv-x="407" 
d="M11 422h83l111 -345l150 345h73l-338 -681l-65 23l137 233zM124 590c22 0 40 -18 40 -40s-18 -40 -40 -40s-40 18 -40 40s18 40 40 40zM313 590c22 0 40 -18 40 -40s-18 -40 -40 -40s-40 18 -40 40s18 40 40 40z" />
    <glyph glyph-name="zcaron" unicode="&#x17e;" horiz-adv-x="389" 
d="M37 422h350v-31l-278 -336h276l-13 -55h-362v35l277 337h-250v50zM228 475h-33l-116 155l22 17l110 -101l111 101l21 -17z" />
    <glyph glyph-name="Hungarumlautsmall" unicode="&#xf6f8;" horiz-adv-x="500" 
d="M260 682h10l53 -14v-10l-137 -134l-24 4zM387 682h10l53 -14v-10l-137 -134l-24 4z" />
    <glyph glyph-name="zerooldstyle" unicode="&#xf730;" horiz-adv-x="556" 
d="M282 462c130 0 221 -98 221 -237c0 -141 -92 -237 -227 -237c-131 0 -223 98 -223 236c0 142 92 238 229 238zM280 408c-99 0 -154 -65 -154 -182c0 -116 56 -184 152 -184c98 0 152 66 152 185c0 114 -56 181 -150 181z" />
    <glyph glyph-name="oneoldstyle" unicode="&#xf731;" horiz-adv-x="222" 
d="M73 444l76 12v-456h-76v444z" />
    <glyph glyph-name="twooldstyle" unicode="&#xf732;" horiz-adv-x="426" 
d="M403 69l-22 -69h-357v30c50 42 151 134 176 159c47 50 66 86 66 128c0 55 -30 86 -83 86c-49 0 -91 -27 -117 -74h-18l-6 44v6c0 7 2 9 18 25c36 36 93 58 147 58c83 0 139 -52 139 -129c0 -49 -23 -92 -73 -143c-31 -30 -31 -30 -143 -123z" />
    <glyph glyph-name="threeoldstyle" unicode="&#xf733;" horiz-adv-x="389" 
d="M31 344v51c0 7 1 10 8 15c40 34 94 52 151 52c81 0 129 -42 129 -114c0 -61 -31 -102 -115 -150c93 -8 145 -65 145 -160c0 -116 -112 -219 -238 -219c-40 0 -82 9 -104 23c-5 3 -7 6 -7 12c0 7 1 11 4 15l23 31h12c31 -17 66 -27 95 -27c78 0 136 63 136 147
c0 79 -44 127 -117 127c-26 0 -43 -3 -67 -14l-11 5l-7 37c120 46 172 95 172 163c0 45 -27 72 -73 72c-47 0 -89 -24 -115 -66h-21z" />
    <glyph glyph-name="fouroldstyle" unicode="&#xf734;" horiz-adv-x="500" 
d="M338 449h44v-380h107l-16 -58h-91v-199l-67 -12v211h-303v46zM315 69v280l-229 -280h229z" />
    <glyph glyph-name="fiveoldstyle" unicode="&#xf735;" horiz-adv-x="389" 
d="M135 449h222l-16 -68h-187l-38 -106c147 -64 208 -132 208 -232c0 -118 -109 -223 -231 -223c-34 0 -68 10 -88 25c-6 5 -7 7 -7 16c0 7 1 10 5 13l26 27h14c24 -15 52 -23 81 -23c75 0 129 58 129 140c0 49 -26 99 -69 133c-33 25 -57 38 -141 74z" />
    <glyph glyph-name="sixoldstyle" unicode="&#xf736;" horiz-adv-x="519" 
d="M475 593l-5 -10c-168 -16 -300 -133 -323 -284c56 45 99 62 158 62c102 0 170 -71 170 -178c0 -116 -84 -195 -208 -195c-126 0 -202 91 -202 240c0 150 75 276 206 346c54 29 137 53 182 53c7 0 8 -1 11 -7zM146 244c-1 -14 -2 -26 -2 -32c0 -106 53 -178 131 -178
c75 0 122 52 122 137s-44 136 -117 136c-49 0 -100 -24 -134 -63z" />
    <glyph glyph-name="sevenoldstyle" unicode="&#xf737;" horiz-adv-x="444" 
d="M26 449h406v-43l-351 -610l-64 31l339 554h-344z" />
    <glyph glyph-name="eightoldstyle" unicode="&#xf738;" horiz-adv-x="500" 
d="M303 327c103 -52 144 -102 144 -175c0 -97 -84 -164 -204 -164c-118 0 -190 58 -190 151c0 76 42 128 138 173c-50 30 -62 39 -77 55c-28 28 -44 66 -44 102c0 91 76 153 190 153c104 0 169 -52 169 -137c0 -68 -40 -119 -126 -158zM264 349c66 32 90 65 90 122
c0 68 -36 105 -103 105c-65 0 -108 -38 -108 -96c0 -51 29 -82 121 -131zM227 291c-67 -29 -101 -77 -101 -144c0 -72 45 -114 121 -114c75 0 125 44 125 108c0 60 -46 107 -145 150z" />
    <glyph glyph-name="nineoldstyle" unicode="&#xf739;" horiz-adv-x="518" 
d="M43 -144l6 9c164 13 300 134 321 287c-55 -46 -99 -64 -158 -64c-99 0 -168 74 -168 179c0 115 86 195 208 195c46 0 90 -14 123 -41c52 -40 79 -109 79 -200c0 -170 -103 -315 -266 -373c-43 -15 -91 -25 -124 -25c-7 0 -7 0 -10 6zM373 206l1 24
c0 118 -49 187 -131 187c-74 0 -121 -54 -121 -139s44 -136 117 -136c52 0 102 24 134 64z" />
    <glyph glyph-name="Asmall" unicode="&#xf761;" horiz-adv-x="463" 
d="M218 466h55l181 -466h-80l-51 141h-186l-57 -141h-72zM307 186l-72 199l-80 -199h152z" />
    <glyph glyph-name="Bsmall" unicode="&#xf762;" horiz-adv-x="465" 
d="M85 0v466c78 2 117 3 144 3c65 0 92 -5 119 -20c28 -17 44 -48 44 -85c0 -49 -27 -84 -79 -105c73 -18 108 -57 108 -122c0 -49 -25 -91 -65 -113c-38 -20 -80 -27 -154 -27c-30 0 -51 1 -117 3zM156 266h36c44 0 71 4 87 14c23 14 34 36 34 66c0 57 -28 78 -105 78
c-17 0 -32 0 -52 -1v-157zM156 45h10l43 -1c86 -1 131 30 131 91c0 33 -16 62 -43 76c-18 9 -42 12 -98 12c-17 0 -28 0 -43 -2v-176z" />
    <glyph glyph-name="Csmall" unicode="&#xf763;" horiz-adv-x="498" 
d="M477 439l-5 -37c0 -7 -2 -9 -6 -11l-6 -3c-3 -1 -4 -2 -5 -2s-4 1 -6 2c-43 25 -88 37 -133 37c-107 0 -181 -78 -181 -190s78 -195 182 -195c42 0 100 17 130 37c4 3 6 4 8 4l5 -1l6 -3c2 -1 3 -2 3 -4s0 -2 -1 -8l-11 -42c-2 -6 -4 -8 -8 -11c-22 -12 -85 -22 -136 -22
c-159 0 -261 92 -261 236c0 149 113 250 280 250c37 0 80 -6 128 -18c12 -4 17 -7 17 -13v-6z" />
    <glyph glyph-name="Dsmall" unicode="&#xf764;" horiz-adv-x="586" 
d="M85 0v466c45 1 159 3 159 3c94 0 145 -10 194 -36c60 -34 97 -104 97 -186c0 -86 -38 -161 -104 -203c-53 -35 -108 -47 -219 -47c-40 0 -66 1 -127 3zM158 45l60 -1c157 0 234 64 234 194c0 80 -33 139 -91 165c-34 16 -70 21 -137 21c-23 0 -33 0 -66 -1v-378z" />
    <glyph glyph-name="Esmall" unicode="&#xf765;" horiz-adv-x="441" 
d="M85 466h312v-50h-239v-150h211v-48h-211v-165h245v-53h-318v466z" />
    <glyph glyph-name="Fsmall" unicode="&#xf766;" horiz-adv-x="391" 
d="M85 466h312v-50h-239v-154h203v-48h-203v-214h-73v466z" />
    <glyph glyph-name="Gsmall" unicode="&#xf767;" horiz-adv-x="553" 
d="M418 234h73v-216c-48 -18 -110 -28 -170 -28c-168 0 -269 89 -269 236c0 151 111 250 281 250c46 0 98 -7 131 -18c10 -3 12 -6 13 -19l1 -34c0 -6 -1 -10 -4 -12l-5 -3c-1 -1 -2 -1 -3 -1c-2 0 -2 0 -18 8c-41 19 -95 32 -135 32c-109 0 -178 -72 -178 -187
c0 -62 22 -119 62 -157c35 -33 78 -48 142 -48c31 0 50 2 79 10v187z" />
    <glyph glyph-name="Hsmall" unicode="&#xf768;" horiz-adv-x="576" 
d="M158 262h261v204h73v-466h-73v214h-261v-214h-73v466h73v-204z" />
    <glyph glyph-name="Ismall" unicode="&#xf769;" horiz-adv-x="242" 
d="M85 466h73v-466h-73v466z" />
    <glyph glyph-name="Jsmall" unicode="&#xf76a;" horiz-adv-x="241" 
d="M92 466h73v-355c0 -98 -2 -115 -20 -152c-28 -56 -88 -98 -141 -98c-16 0 -37 5 -47 10c-8 5 -10 8 -10 18c0 8 1 11 5 18l14 22c5 9 5 9 9 9h5c4 0 5 0 8 -3c11 -7 23 -11 37 -11c22 0 40 8 51 22c14 19 16 41 16 165v355z" />
    <glyph glyph-name="Ksmall" unicode="&#xf76b;" horiz-adv-x="463" 
d="M85 466h73v-466h-73v466zM376 466h93l-225 -204l235 -262h-100l-215 250z" />
    <glyph glyph-name="Lsmall" unicode="&#xf76c;" horiz-adv-x="371" 
d="M85 466h73v-413h232v-53h-305v466z" />
    <glyph glyph-name="Msmall" unicode="&#xf76d;" horiz-adv-x="667" 
d="M99 466h62l175 -364l166 364h62l20 -466h-68l-12 356l-156 -343l-40 -4l-165 346l3 -355h-65z" />
    <glyph glyph-name="Nsmall" unicode="&#xf76e;" horiz-adv-x="579" 
d="M86 466h55l302 -347l-9 347h64l-5 -462l-35 -12l-323 370l11 -362h-66z" />
    <glyph glyph-name="Osmall" unicode="&#xf76f;" horiz-adv-x="607" 
d="M306 476c142 0 249 -104 249 -243c0 -140 -107 -243 -252 -243c-144 0 -251 103 -251 242c0 142 106 244 254 244zM302 427c-100 0 -167 -74 -167 -184c0 -122 69 -204 171 -204s166 73 166 189c0 73 -24 132 -68 165c-29 22 -66 34 -102 34z" />
    <glyph glyph-name="Psmall" unicode="&#xf770;" horiz-adv-x="426" 
d="M85 0v466c49 2 82 3 122 3c81 0 119 -8 153 -31c33 -22 51 -60 51 -106c0 -54 -24 -101 -67 -129c-31 -20 -81 -31 -140 -31c-12 0 -16 0 -46 1v-173h-73zM158 219h40c93 0 135 34 135 108c0 67 -37 97 -121 97c-12 0 -24 0 -54 -1v-204z" />
    <glyph glyph-name="Qsmall" unicode="&#xf771;" horiz-adv-x="607" 
d="M598 -103l3 -38c-10 -2 -18 -2 -39 -2c-99 0 -168 33 -276 134c-139 10 -234 108 -234 242c0 140 107 243 251 243c145 0 252 -103 252 -243c0 -111 -66 -200 -173 -231c63 -72 129 -104 216 -105zM302 427c-100 0 -167 -74 -167 -184c0 -122 69 -204 171 -204
s166 73 166 189c0 73 -24 132 -68 165c-29 22 -66 34 -102 34z" />
    <glyph glyph-name="Rsmall" unicode="&#xf772;" horiz-adv-x="481" 
d="M85 0v466c76 2 111 3 139 3c71 0 104 -6 134 -24c33 -20 53 -61 53 -106c0 -59 -29 -100 -90 -131c83 -143 111 -174 160 -180l3 -5l-7 -23c-1 -5 -6 -7 -17 -7c-43 0 -78 13 -107 40c-28 26 -43 49 -103 155c-20 -2 -31 -3 -49 -3c-13 0 -23 0 -43 2v-187h-73zM158 423
v-190c30 -1 38 -1 54 -1c43 0 69 7 89 24c20 16 32 45 32 76c0 63 -38 92 -119 92c-14 0 -25 0 -56 -1z" />
    <glyph glyph-name="Ssmall" unicode="&#xf773;" horiz-adv-x="408" 
d="M343 444l5 -43l1 -6c0 -3 -1 -5 -6 -7l-6 -2c-2 -1 -3 -1 -4 -1s-2 1 -5 3c-27 23 -69 38 -109 38c-56 0 -92 -28 -92 -72c0 -18 8 -36 21 -47c15 -12 22 -16 80 -38c108 -42 140 -74 140 -141c0 -82 -73 -138 -179 -138c-32 0 -92 10 -127 20c-14 5 -14 5 -16 21l-5 43
v4c0 4 1 6 5 7l7 3h4c1 0 1 0 18 -11c34 -23 84 -38 124 -38c56 0 96 33 96 78c0 35 -24 56 -94 84c-78 32 -82 34 -107 54c-25 21 -38 51 -38 87c0 81 67 134 169 134c36 0 81 -7 106 -16c8 -4 10 -6 12 -16z" />
    <glyph glyph-name="Tsmall" unicode="&#xf774;" horiz-adv-x="387" 
d="M-24 466h435v-50h-181v-416h-73v416h-181v50z" />
    <glyph glyph-name="Usmall" unicode="&#xf775;" horiz-adv-x="547" 
d="M78 466h73v-248c0 -92 2 -105 18 -127c21 -29 62 -45 112 -45c57 0 99 20 117 56c10 21 14 52 14 116v248h63l-6 -248c-1 -86 -11 -127 -38 -161c-34 -44 -90 -67 -160 -67c-74 0 -136 26 -166 71c-22 32 -27 63 -27 157v248z" />
    <glyph glyph-name="Vsmall" unicode="&#xf776;" horiz-adv-x="444" 
d="M12 466h80l133 -377l150 377h74l-214 -466h-47z" />
    <glyph glyph-name="Wsmall" unicode="&#xf777;" horiz-adv-x="722" 
d="M18 466h81l122 -378l129 378h52l105 -378l144 378h69l-198 -466h-55l-102 359l-128 -359h-53z" />
    <glyph glyph-name="Xsmall" unicode="&#xf778;" horiz-adv-x="426" 
d="M14 466h88l124 -183l132 183h77l-182 -219l173 -247h-91l-131 194l-140 -194h-74l188 232z" />
    <glyph glyph-name="Ysmall" unicode="&#xf779;" horiz-adv-x="370" 
d="M-12 466h87l126 -220l129 220h74l-181 -264v-202h-73v197z" />
    <glyph glyph-name="Zsmall" unicode="&#xf77a;" horiz-adv-x="408" 
d="M41 466h360v-30l-297 -383h297l-14 -53h-381v33l299 383h-264v50z" />
    <glyph glyph-name="Lslashsmall" unicode="&#xf6f9;" horiz-adv-x="370" 
d="M84 466h73v-180l106 78v-56l-106 -78v-177h233v-53h-306v187l-65 -48v56l65 48v223z" />
    <glyph glyph-name="Scaronsmall" unicode="&#xf6fd;" horiz-adv-x="408" 
d="M343 444l5 -43l1 -6c0 -3 -1 -5 -6 -7l-6 -2c-2 -1 -3 -1 -4 -1s-2 1 -5 3c-27 23 -69 38 -109 38c-56 0 -92 -28 -92 -72c0 -18 8 -36 21 -47c15 -12 22 -16 80 -38c108 -42 140 -74 140 -141c0 -82 -73 -138 -179 -138c-32 0 -92 10 -127 20c-14 5 -14 5 -16 21l-5 43
v4c0 4 1 6 5 7l7 3h4c1 0 1 0 18 -11c34 -23 84 -38 124 -38c56 0 96 33 96 78c0 35 -24 56 -94 84c-78 32 -82 34 -107 54c-25 21 -38 51 -38 87c0 81 67 134 169 134c36 0 81 -7 106 -16c8 -4 10 -6 12 -16zM233 529h-33l-121 156l22 17l116 -102l115 102l22 -17z" />
    <glyph glyph-name="Zcaronsmall" unicode="&#xf6ff;" horiz-adv-x="408" 
d="M41 466h360v-30l-297 -383h297l-14 -53h-381v33l299 383h-264v50zM236 529h-33l-121 156l22 17l116 -102l115 102l22 -17z" />
    <glyph glyph-name="Brevesmall" unicode="&#xf6f4;" horiz-adv-x="500" 
d="M120 680h33c11 -52 47 -82 97 -82s85 30 96 82h33v-14c-1 -69 -58 -124 -129 -124c-73 0 -130 56 -130 128v10z" />
    <glyph glyph-name="Caronsmall" unicode="&#xf6f5;" horiz-adv-x="500" 
d="M266 529h-33l-121 156l22 17l116 -102l115 102l22 -17z" />
    <glyph glyph-name="Dotaccentsmall" unicode="&#xf6f7;" horiz-adv-x="500" 
d="M248 642c24 0 43 -19 43 -43s-19 -43 -44 -43c-22 0 -42 20 -42 43c0 24 19 43 43 43z" />
    <glyph glyph-name="Ogoneksmall" unicode="&#xf6fb;" horiz-adv-x="500" 
d="M395 0h37c-55 -54 -76 -87 -76 -118c0 -24 18 -38 48 -38c12 0 27 2 42 7h6l-1 -5c-2 -13 -4 -17 -12 -22c-14 -9 -42 -16 -62 -16c-47 0 -78 27 -78 68c0 39 31 80 96 124z" />
    <glyph glyph-name="Agravesmall" unicode="&#xf7e0;" horiz-adv-x="463" 
d="M218 466h55l181 -466h-80l-51 141h-186l-57 -141h-72zM307 186l-72 199l-80 -199h152zM164 688l124 -160l-27 -7l-165 134v12l57 21h11z" />
    <glyph glyph-name="Aacutesmall" unicode="&#xf7e1;" horiz-adv-x="463" 
d="M218 466h55l181 -466h-80l-51 141h-186l-57 -141h-72zM307 186l-72 199l-80 -199h152zM328 688h11l57 -21v-12l-165 -134l-27 7z" />
    <glyph glyph-name="Acircumflexsmall" unicode="&#xf7e2;" horiz-adv-x="463" 
d="M218 466h55l181 -466h-80l-51 141h-186l-57 -141h-72zM307 186l-72 199l-80 -199h152zM229 695h33l121 -156l-22 -17l-115 102l-116 -102l-22 17z" />
    <glyph glyph-name="Atildesmall" unicode="&#xf7e3;" horiz-adv-x="463" 
d="M218 466h55l181 -466h-80l-51 141h-186l-57 -141h-72zM307 186l-72 199l-80 -199h152zM383 668l23 -17c-35 -64 -68 -93 -105 -93c-20 0 -37 7 -71 28c-30 20 -39 24 -53 24c-23 0 -39 -13 -71 -57l-22 15c36 67 67 97 102 97c18 0 23 -2 68 -28c26 -15 45 -23 57 -23
c24 0 50 19 72 54z" />
    <glyph glyph-name="Adieresissmall" unicode="&#xf7e4;" horiz-adv-x="463" 
d="M218 466h55l181 -466h-80l-51 141h-186l-57 -141h-72zM307 186l-72 199l-80 -199h152zM132 640c23 0 41 -18 41 -41s-18 -41 -41 -41c-22 0 -41 19 -41 41s18 41 41 41zM328 640c23 0 41 -19 41 -41c0 -23 -18 -41 -41 -41c-22 0 -41 19 -41 41s19 41 41 41z" />
    <glyph glyph-name="Aringsmall" unicode="&#xf7e5;" horiz-adv-x="463" 
d="M218 466h55l181 -466h-80l-51 141h-186l-57 -141h-72zM307 186l-72 199l-80 -199h152zM231 713c56 0 101 -42 101 -94s-44 -92 -103 -92c-55 0 -98 41 -98 92c0 52 45 94 100 94zM233 673c-30 0 -52 -23 -52 -54c0 -32 22 -55 51 -55c30 0 50 21 50 53
c0 33 -21 56 -49 56z" />
    <glyph glyph-name="AEsmall" unicode="&#xf7e6;" horiz-adv-x="681" 
d="M312 466h325v-50h-238v-150h212v-48h-212v-165h243v-53h-310v142h-197l-103 -142h-78zM332 187v228l-165 -228h165z" />
    <glyph glyph-name="Ccedillasmall" unicode="&#xf7e7;" horiz-adv-x="498" 
d="M344 -8l-35 -56v-10c3 -2 8 -6 8 -6c37 -25 45 -35 45 -56c0 -45 -55 -95 -105 -95c-26 0 -58 17 -58 30c0 3 0 4 4 9l17 20h13c15 -17 24 -22 41 -22c23 0 41 15 41 34c0 15 -17 29 -61 52v22l54 77c-46 1 -82 7 -116 21c-88 34 -140 114 -140 214
c0 150 113 250 280 250c37 0 83 -7 128 -18c12 -3 17 -7 17 -14v-5l-5 -37c0 -7 -2 -9 -6 -11l-6 -3c-3 -1 -4 -2 -5 -2s-4 1 -6 2c-43 25 -88 37 -133 37c-107 0 -181 -78 -181 -190c0 -111 78 -194 182 -194c42 0 99 16 130 37c4 3 6 4 8 4c1 0 1 0 5 -2l6 -3
c2 -1 3 -2 3 -4c0 -1 0 -2 -1 -8l-11 -41c1 -14 -41 -26 -113 -32z" />
    <glyph glyph-name="Egravesmall" unicode="&#xf7e8;" horiz-adv-x="441" 
d="M85 466h312v-50h-239v-150h211v-48h-211v-165h245v-53h-318v466zM184 688l124 -160l-27 -7l-165 134v12l57 21h11z" />
    <glyph glyph-name="Eacutesmall" unicode="&#xf7e9;" horiz-adv-x="441" 
d="M85 466h312v-50h-239v-150h211v-48h-211v-165h245v-53h-318v466zM319 688h11l57 -21v-12l-165 -134l-27 7z" />
    <glyph glyph-name="Ecircumflexsmall" unicode="&#xf7ea;" horiz-adv-x="441" 
d="M85 466h312v-50h-239v-150h211v-48h-211v-165h245v-53h-318v466zM217 695h33l121 -156l-22 -17l-115 102l-116 -102l-22 17z" />
    <glyph glyph-name="Edieresissmall" unicode="&#xf7eb;" horiz-adv-x="441" 
d="M85 466h312v-50h-239v-150h211v-48h-211v-165h245v-53h-318v466zM147 640c23 0 41 -18 41 -41s-18 -41 -41 -41c-22 0 -41 19 -41 41s19 41 41 41zM330 640c23 0 41 -19 41 -41c0 -23 -18 -41 -41 -41c-22 0 -41 19 -41 41s19 41 41 41z" />
    <glyph glyph-name="Igravesmall" unicode="&#xf7ec;" horiz-adv-x="242" 
d="M84 466h73v-466h-73v466zM55 688l105 -160l-27 -7l-146 134v12l57 21h11z" />
    <glyph glyph-name="Iacutesmall" unicode="&#xf7ed;" horiz-adv-x="242" 
d="M85 466h73v-466h-73v466zM186 688h11l57 -21v-12l-146 -134l-27 7z" />
    <glyph glyph-name="Icircumflexsmall" unicode="&#xf7ee;" horiz-adv-x="242" 
d="M84 466h73v-466h-73v466zM105 695h32l109 -156l-23 -17l-102 102l-103 -102l-22 17z" />
    <glyph glyph-name="Idieresissmall" unicode="&#xf7ef;" horiz-adv-x="242" 
d="M85 466h73v-466h-73v466zM46 640c23 0 41 -18 41 -41s-18 -41 -41 -41c-22 0 -41 19 -41 41s18 41 41 41zM195 640c23 0 41 -19 41 -41c0 -23 -18 -41 -41 -41c-22 0 -41 19 -41 41s18 41 41 41z" />
    <glyph glyph-name="Ethsmall" unicode="&#xf7f0;" horiz-adv-x="586" 
d="M84 212h-67v48h67v206c45 1 160 3 160 3c94 0 145 -10 194 -36c60 -34 97 -104 97 -187c0 -85 -38 -160 -104 -202c-53 -35 -109 -47 -219 -47c-41 0 -67 1 -128 3v212zM157 212v-167c37 -1 57 -1 60 -1c158 0 235 64 235 194c0 79 -33 139 -91 165
c-35 16 -70 21 -138 21c-18 0 -31 0 -66 -1v-163h138v-48h-138z" />
    <glyph glyph-name="Ntildesmall" unicode="&#xf7f1;" horiz-adv-x="579" 
d="M88 466h55l302 -347l-9 347h64l-5 -462l-35 -12l-323 370l11 -362h-66zM433 668l23 -17c-35 -64 -68 -93 -105 -93c-20 0 -37 7 -71 28c-30 20 -39 24 -53 24c-23 0 -39 -13 -71 -57l-22 15c36 67 67 97 102 97c18 0 23 -2 68 -28c26 -15 45 -23 57 -23c24 0 50 19 72 54
z" />
    <glyph glyph-name="Ogravesmall" unicode="&#xf7f2;" horiz-adv-x="607" 
d="M306 476c142 0 249 -104 249 -243c0 -140 -107 -243 -252 -243c-144 0 -251 103 -251 242c0 142 106 244 254 244zM302 427c-100 0 -167 -74 -167 -184c0 -122 69 -204 171 -204s166 73 166 189c0 73 -24 132 -68 165c-29 22 -66 34 -102 34zM219 688l124 -160l-27 -7
l-165 134v12l57 21h11z" />
    <glyph glyph-name="Oacutesmall" unicode="&#xf7f3;" horiz-adv-x="607" 
d="M306 476c142 0 249 -104 249 -243c0 -140 -107 -243 -252 -243c-144 0 -251 103 -251 242c0 142 106 244 254 244zM302 427c-100 0 -167 -74 -167 -184c0 -122 69 -204 171 -204s166 73 166 189c0 73 -24 132 -68 165c-29 22 -66 34 -102 34zM387 688h11l57 -21v-12
l-165 -134l-27 7z" />
    <glyph glyph-name="Ocircumflexsmall" unicode="&#xf7f4;" horiz-adv-x="607" 
d="M306 476c142 0 249 -104 249 -243c0 -140 -107 -243 -252 -243c-144 0 -251 103 -251 242c0 142 106 244 254 244zM302 427c-100 0 -167 -74 -167 -184c0 -122 69 -204 171 -204s166 73 166 189c0 73 -24 132 -68 165c-29 22 -66 34 -102 34zM287 695h33l121 -156
l-22 -17l-115 102l-116 -102l-22 17z" />
    <glyph glyph-name="Otildesmall" unicode="&#xf7f5;" horiz-adv-x="607" 
d="M306 476c142 0 249 -104 249 -243c0 -140 -107 -243 -252 -243c-144 0 -251 103 -251 242c0 142 106 244 254 244zM302 427c-100 0 -167 -74 -167 -184c0 -122 69 -204 171 -204s166 73 166 189c0 73 -24 132 -68 165c-29 22 -66 34 -102 34zM442 668l23 -17
c-35 -64 -68 -93 -105 -93c-20 0 -37 7 -71 28c-30 20 -39 24 -53 24c-23 0 -39 -13 -71 -57l-22 15c36 67 67 97 102 97c18 0 23 -2 68 -28c26 -15 45 -23 57 -23c24 0 50 19 72 54z" />
    <glyph glyph-name="Odieresissmall" unicode="&#xf7f6;" horiz-adv-x="607" 
d="M306 476c142 0 249 -104 249 -243c0 -140 -107 -243 -252 -243c-144 0 -251 103 -251 242c0 142 106 244 254 244zM302 427c-100 0 -167 -74 -167 -184c0 -122 69 -204 171 -204s166 73 166 189c0 73 -24 132 -68 165c-29 22 -66 34 -102 34zM204 640c23 0 41 -18 41 -41
s-18 -41 -41 -41c-22 0 -41 19 -41 41s18 41 41 41zM400 640c23 0 41 -19 41 -41c0 -23 -18 -41 -41 -41c-22 0 -41 19 -41 41s19 41 41 41z" />
    <glyph glyph-name="OEsmall" unicode="&#xf6fa;" horiz-adv-x="781" 
d="M430 466h304v-50h-237v-150h213v-48h-213v-165h246v-53h-313l1 22c-50 -23 -86 -32 -133 -32c-138 0 -246 105 -246 241c0 137 113 245 256 245c45 0 82 -9 123 -30zM428 85v285c-31 38 -74 57 -125 57c-100 0 -168 -75 -168 -186c0 -116 74 -202 175 -202
c44 0 83 15 118 46z" />
    <glyph glyph-name="Oslashsmall" unicode="&#xf7f8;" horiz-adv-x="607" 
d="M477 493h43l-52 -72c56 -46 87 -113 87 -188c0 -140 -107 -243 -252 -243c-45 0 -82 9 -123 29l-46 -64h-42l58 82c-62 45 -98 116 -98 196c0 140 107 243 251 243c50 0 97 -12 136 -35zM191 85l209 311c-28 21 -61 31 -100 31c-98 0 -165 -75 -165 -183
c0 -65 18 -117 56 -159zM427 373l-208 -310c29 -17 54 -24 88 -24c101 0 165 73 165 189c0 60 -14 105 -45 145z" />
    <glyph glyph-name="Ugravesmall" unicode="&#xf7f9;" horiz-adv-x="547" 
d="M78 466h73v-248c0 -92 2 -105 18 -127c21 -29 62 -45 112 -45c57 0 99 20 117 56c10 21 14 52 14 116v248h63l-6 -248c-1 -86 -11 -127 -38 -161c-34 -44 -90 -67 -160 -67c-74 0 -136 26 -166 71c-22 32 -27 63 -27 157v248zM188 688l124 -160l-27 -7l-165 134v12l57 21
h11z" />
    <glyph glyph-name="Uacutesmall" unicode="&#xf7fa;" horiz-adv-x="547" 
d="M78 466h73v-248c0 -92 2 -105 18 -127c21 -29 62 -45 112 -45c57 0 99 20 117 56c10 21 14 52 14 116v248h63l-6 -248c-1 -86 -11 -127 -38 -161c-34 -44 -90 -67 -160 -67c-74 0 -136 26 -166 71c-22 32 -27 63 -27 157v248zM356 688h11l57 -21v-12l-165 -134l-27 7z
" />
    <glyph glyph-name="Ucircumflexsmall" unicode="&#xf7fb;" horiz-adv-x="547" 
d="M78 466h73v-248c0 -92 2 -105 18 -127c21 -29 62 -45 112 -45c57 0 99 20 117 56c10 21 14 52 14 116v248h63l-6 -248c-1 -86 -11 -127 -38 -161c-34 -44 -90 -67 -160 -67c-74 0 -136 26 -166 71c-22 32 -27 63 -27 157v248zM256 695h33l121 -156l-22 -17l-115 102
l-116 -102l-22 17z" />
    <glyph glyph-name="Udieresissmall" unicode="&#xf7fc;" horiz-adv-x="547" 
d="M78 466h73v-248c0 -92 2 -105 18 -127c21 -29 62 -45 112 -45c57 0 99 20 117 56c10 21 14 52 14 116v248h63l-6 -248c-1 -86 -11 -127 -38 -161c-34 -44 -90 -67 -160 -67c-74 0 -136 26 -166 71c-22 32 -27 63 -27 157v248zM174 640c23 0 41 -18 41 -41
s-18 -41 -41 -41c-22 0 -41 19 -41 41s18 41 41 41zM370 640c23 0 41 -19 41 -41c0 -23 -18 -41 -41 -41c-22 0 -41 19 -41 41s19 41 41 41z" />
    <glyph glyph-name="Yacutesmall" unicode="&#xf7fd;" horiz-adv-x="370" 
d="M-12 466h87l126 -220l129 220h74l-181 -264v-202h-73v197zM268 688h11l57 -21v-12l-165 -134l-27 7z" />
    <glyph glyph-name="Thornsmall" unicode="&#xf7fe;" horiz-adv-x="426" 
d="M85 0v466h73v-67c36 2 58 3 68 3c123 0 185 -46 185 -137c0 -55 -24 -101 -67 -130c-31 -20 -81 -31 -139 -31c-7 0 -15 0 -47 1v-105h-73zM158 355v-203c23 -1 30 -1 39 -1c94 0 136 34 136 108c0 68 -37 98 -121 98c-14 0 -26 0 -54 -2z" />
    <glyph glyph-name="Ydieresissmall" unicode="&#xf7ff;" horiz-adv-x="370" 
d="M-12 466h87l126 -220l129 220h74l-181 -264v-202h-73v197zM105 640c23 0 41 -19 41 -41c0 -23 -18 -41 -41 -41c-22 0 -41 19 -41 41s18 41 41 41zM288 640c23 0 41 -19 41 -41c0 -23 -18 -41 -41 -41c-22 0 -41 19 -41 41s18 41 41 41z" />
    <glyph glyph-name="Abreve" unicode="&#x102;" horiz-adv-x="611" 
d="M299 634h62l245 -634h-85l-75 205h-276l-85 -205h-80zM427 254l-111 298l-125 -298h236zM186 834h34c12 -48 48 -76 100 -76c51 0 87 28 99 76h34c0 -32 -1 -41 -10 -61c-20 -44 -68 -72 -124 -72c-76 0 -133 51 -133 121v12z" />
    <glyph glyph-name="Aogonek" unicode="&#x104;" horiz-adv-x="611" 
d="M299 634h62l245 -634c-55 -55 -78 -90 -78 -121c0 -26 18 -40 49 -40c13 0 27 2 43 7h7l-1 -5c-3 -13 -5 -17 -13 -22c-14 -10 -43 -17 -64 -17c-48 0 -80 28 -80 70c0 41 33 84 99 128h-47l-75 205h-276l-85 -205h-80zM427 254l-111 298l-125 -298h236z" />
    <glyph glyph-name="Cacute" unicode="&#x106;" horiz-adv-x="648" 
d="M619 608l-5 -43c-2 -8 -2 -9 -6 -11l-6 -3c-2 -1 -5 -2 -6 -2c-2 0 -2 0 -14 6c-42 21 -113 37 -168 37c-164 0 -272 -109 -272 -275c0 -88 28 -157 87 -210c49 -45 108 -68 178 -68c58 0 132 16 173 37c11 5 12 6 13 6s4 -2 5 -3l5 -4c4 -2 4 -3 4 -5l-1 -4l-7 -42
c-2 -7 -5 -11 -15 -14c-30 -10 -125 -21 -188 -21c-89 0 -149 16 -205 53c-85 56 -138 157 -138 262c0 111 57 215 151 277c67 44 142 64 242 64c61 0 138 -11 166 -23c6 -2 9 -7 8 -11zM486 849l14 -1l58 -30l-2 -13l-194 -120l-27 11z" />
    <glyph glyph-name="Ccaron" unicode="&#x10c;" horiz-adv-x="648" 
d="M619 608l-5 -43c-2 -8 -2 -9 -6 -11l-6 -3c-2 -1 -5 -2 -6 -2c-2 0 -2 0 -14 6c-42 21 -113 37 -168 37c-164 0 -272 -109 -272 -275c0 -88 28 -157 87 -210c49 -45 108 -68 178 -68c58 0 132 16 173 37c11 5 12 6 13 6s4 -2 5 -3l5 -4c4 -2 4 -3 4 -5l-1 -4l-7 -42
c-2 -7 -5 -11 -15 -14c-30 -10 -125 -21 -188 -21c-89 0 -149 16 -205 53c-85 56 -138 157 -138 262c0 111 57 215 151 277c67 44 142 64 242 64c61 0 138 -11 166 -23c6 -2 9 -7 8 -11zM425 692h-33l-137 157l25 20l129 -106l129 106l24 -20z" />
    <glyph glyph-name="Dcaron" unicode="&#x10e;" horiz-adv-x="722" 
d="M100 0v635c96 3 160 5 223 5c140 0 199 -16 256 -71c56 -54 90 -144 90 -239c0 -104 -42 -198 -116 -259c-61 -51 -138 -71 -265 -71h-188zM178 50h115c100 0 170 21 213 65c45 45 74 128 74 211c0 97 -40 184 -103 227c-40 28 -81 37 -167 37c-41 0 -41 0 -132 -4v-536z
M338 692h-33l-137 157l25 20l129 -106l129 106l24 -20z" />
    <glyph glyph-name="Ecaron" unicode="&#x11a;" 
d="M100 634h409v-55h-331v-214h293v-56h-293v-251h333v-58h-411v634zM313 692h-33l-137 157l25 20l129 -106l129 106l24 -20z" />
    <glyph glyph-name="Edotaccent" unicode="&#x116;" 
d="M100 634h409v-55h-331v-214h293v-56h-293v-251h333v-58h-411v634zM296 793c25 0 45 -21 45 -46s-21 -45 -46 -45c-24 0 -45 21 -45 45c0 25 20 46 46 46z" />
    <glyph glyph-name="Eogonek" unicode="&#x118;" 
d="M100 634h409v-55h-331v-214h293v-56h-293v-251h333v-58c-62 -65 -78 -90 -78 -121c0 -26 18 -40 49 -40c13 0 25 2 43 7h7l-1 -5c-3 -13 -5 -17 -14 -22c-14 -10 -41 -17 -63 -17c-48 0 -80 28 -80 70c0 40 34 84 99 128h-373v634z" />
    <glyph glyph-name="Gbreve" unicode="&#x11e;" horiz-adv-x="704" 
d="M561 314h79v-298c-91 -18 -174 -27 -233 -27c-91 0 -162 16 -219 50c-84 51 -135 148 -135 258c0 140 76 260 200 314c53 23 117 35 189 35c52 0 144 -11 167 -21c7 -3 10 -6 11 -12l2 -48v-3c0 -2 -1 -4 -3 -6l-8 -6c-1 -1 -2 -2 -3 -2s-2 0 -3 1
c-67 31 -124 44 -187 44c-167 0 -276 -110 -276 -279c0 -168 109 -272 285 -272c46 0 82 4 134 16v256zM275 834h34c12 -48 48 -76 100 -76c51 0 87 28 99 76h34c0 -32 -1 -41 -10 -61c-20 -44 -68 -72 -124 -72c-76 0 -133 51 -133 121v12z" />
    <glyph glyph-name="Idotaccent" unicode="&#x130;" horiz-adv-x="278" 
d="M100 634h79v-634h-79v634zM138 793c25 0 45 -21 45 -46s-21 -45 -46 -45c-24 0 -45 21 -45 45c0 25 20 46 46 46z" />
    <glyph glyph-name="Lacute" unicode="&#x139;" horiz-adv-x="481" 
d="M100 634h78v-576h320v-58h-398v634zM302 849l14 -1l58 -30l-2 -13l-194 -120l-27 11z" />
    <glyph glyph-name="Lcaron" unicode="&#x13d;" horiz-adv-x="481" 
d="M100 634h78v-576h320v-58h-398v634zM294 411l-18 18c30 22 41 32 53 47c18 21 29 46 29 63c0 13 -7 21 -22 25c-26 7 -36 17 -36 36c0 22 16 37 40 37c38 0 68 -34 68 -79c0 -47 -28 -92 -84 -133c-15 -12 -23 -17 -26 -17c-1 0 -2 0 -4 3z" />
    <glyph glyph-name="Nacute" unicode="&#x143;" horiz-adv-x="722" 
d="M85 634h59l432 -504l-14 504h70l-1 -631l-34 -12l-457 528l15 -519h-70v634zM478 849l14 -1l58 -30l-2 -13l-194 -120l-27 11z" />
    <glyph glyph-name="Ncaron" unicode="&#x147;" horiz-adv-x="722" 
d="M85 634h59l432 -504l-14 504h70l-1 -631l-34 -12l-457 528l15 -519h-70v634zM400 692h-33l-137 157l25 20l129 -106l129 106l24 -20z" />
    <glyph glyph-name="Ohungarumlaut" unicode="&#x150;" horiz-adv-x="778" 
d="M404 651c185 0 321 -138 321 -326c0 -122 -62 -236 -160 -294c-50 -30 -120 -48 -183 -48c-183 0 -329 147 -329 330c0 112 60 224 151 282c61 38 124 56 200 56zM390 593c-146 0 -248 -108 -248 -263c0 -161 114 -289 256 -289c135 0 238 116 238 266
c0 81 -32 166 -84 221c-40 42 -97 65 -162 65zM439 841l10 -1l47 -24l-1 -12l-162 -123l-26 9zM587 841l11 -1l47 -24l-1 -12l-163 -123l-26 9z" />
    <glyph glyph-name="Racute" unicode="&#x154;" horiz-adv-x="611" 
d="M100 634l171 3c93 0 137 -7 171 -28c43 -27 72 -83 72 -143c0 -80 -43 -136 -135 -174c39 -72 115 -179 152 -215c25 -24 56 -40 88 -44l-10 -31c-2 -5 -6 -7 -17 -7c-63 0 -100 14 -140 55c-38 39 -85 108 -153 224c-26 -4 -47 -5 -82 -5c-11 0 -19 0 -39 1v-270h-78
v634zM178 582v-260c28 -2 48 -3 68 -3c127 0 183 42 183 138c0 54 -20 94 -57 112c-24 11 -56 16 -105 16c-22 0 -67 -2 -89 -3zM400 849l14 -1l58 -30l-2 -13l-194 -120l-27 11z" />
    <glyph glyph-name="Rcaron" unicode="&#x158;" horiz-adv-x="611" 
d="M100 634l171 3c93 0 137 -7 171 -28c43 -27 72 -83 72 -143c0 -80 -43 -136 -135 -174c39 -72 115 -179 152 -215c25 -24 56 -40 88 -44l-10 -31c-2 -5 -6 -7 -17 -7c-63 0 -100 14 -140 55c-38 39 -85 108 -153 224c-26 -4 -47 -5 -82 -5c-11 0 -19 0 -39 1v-270h-78
v634zM178 582v-260c28 -2 48 -3 68 -3c127 0 183 42 183 138c0 54 -20 94 -57 112c-24 11 -56 16 -105 16c-22 0 -67 -2 -89 -3zM300 692h-33l-137 157l25 20l129 -106l129 106l24 -20z" />
    <glyph glyph-name="Sacute" unicode="&#x15a;" horiz-adv-x="500" 
d="M418 616l9 -55c0 -2 0 -2 1 -4c0 -1 -2 -2 -3 -3l-11 -5c-3 -1 -3 -1 -4 -1c-2 0 -4 1 -10 6c-32 22 -90 39 -136 39c-80 0 -132 -42 -132 -106c0 -30 11 -54 34 -71s35 -24 112 -57c73 -31 106 -50 134 -78s44 -66 44 -107c0 -110 -97 -185 -239 -185
c-48 0 -133 12 -163 23c-11 4 -16 7 -17 13l-9 56v5c0 2 1 4 4 5l8 4l5 1c1 0 3 -1 7 -3c43 -27 119 -47 178 -47c87 0 147 46 147 112c0 25 -10 52 -27 69c-20 21 -47 36 -109 62c-87 37 -108 48 -137 73c-31 27 -48 65 -48 109c0 106 90 175 229 175c39 0 101 -9 122 -18
c7 -2 10 -6 11 -12zM372 849l14 -1l58 -30l-2 -13l-194 -120l-27 11z" />
    <glyph glyph-name="Scedilla" unicode="&#x15e;" horiz-adv-x="500" 
d="M269 -8l-37 -58v-10c3 -2 7 -5 9 -6c37 -26 45 -36 45 -58c0 -46 -56 -97 -107 -97c-25 0 -59 18 -59 31c0 4 0 5 4 9l17 21h14c14 -17 24 -23 41 -23c23 0 42 16 42 35c0 16 -16 30 -62 54v22l55 77c-46 -1 -94 4 -153 16c-31 7 -38 11 -40 20l-9 56l-1 5c0 2 1 3 4 5
l9 4l4 1c2 0 3 -1 7 -3c43 -27 119 -47 178 -47c87 0 147 46 147 112c0 25 -10 52 -27 69c-20 21 -47 36 -109 62c-86 36 -108 48 -137 73c-30 27 -47 65 -47 109c0 106 90 175 228 175c40 0 101 -9 123 -18c6 -2 10 -6 11 -12l8 -55c1 -1 1 -3 1 -4s-1 -2 -3 -3l-11 -5
c-3 -1 -3 -1 -4 -1c-2 0 -4 1 -10 6c-31 22 -89 39 -136 39c-79 0 -131 -42 -131 -107c0 -29 11 -53 34 -70s35 -24 112 -57c72 -31 106 -50 133 -78c28 -28 44 -67 44 -107c0 -64 -37 -123 -96 -154c-27 -14 -53 -22 -91 -28z" />
    <glyph glyph-name="Scedilla" unicode="&#xf6c1;" horiz-adv-x="500" 
d="M269 -8l-37 -58v-10c3 -2 7 -5 9 -6c37 -26 45 -36 45 -58c0 -46 -56 -97 -107 -97c-25 0 -59 18 -59 31c0 4 0 5 4 9l17 21h14c14 -17 24 -23 41 -23c23 0 42 16 42 35c0 16 -16 30 -62 54v22l55 77c-46 -1 -94 4 -153 16c-31 7 -38 11 -40 20l-9 56l-1 5c0 2 1 3 4 5
l9 4l4 1c2 0 3 -1 7 -3c43 -27 119 -47 178 -47c87 0 147 46 147 112c0 25 -10 52 -27 69c-20 21 -47 36 -109 62c-86 36 -108 48 -137 73c-30 27 -47 65 -47 109c0 106 90 175 228 175c40 0 101 -9 123 -18c6 -2 10 -6 11 -12l8 -55c1 -1 1 -3 1 -4s-1 -2 -3 -3l-11 -5
c-3 -1 -3 -1 -4 -1c-2 0 -4 1 -10 6c-31 22 -89 39 -136 39c-79 0 -131 -42 -131 -107c0 -29 11 -53 34 -70s35 -24 112 -57c72 -31 106 -50 133 -78c28 -28 44 -67 44 -107c0 -64 -37 -123 -96 -154c-27 -14 -53 -22 -91 -28z" />
    <glyph glyph-name="Tcaron" unicode="&#x164;" horiz-adv-x="555" 
d="M-29 634h614v-55h-269v-579h-78v579h-267v55zM294 692h-33l-137 157l25 20l129 -106l129 106l24 -20z" />
    <glyph glyph-name="Uring" unicode="&#x16e;" horiz-adv-x="685" 
d="M84 634h78v-316c0 -150 3 -174 22 -207c23 -36 83 -59 157 -59c80 0 145 31 171 82c14 29 20 84 20 184v316h70v-316c0 -149 -15 -211 -63 -258c-46 -45 -126 -71 -219 -71c-107 0 -179 32 -211 93c-23 45 -25 59 -25 236v316zM355 880c56 0 102 -43 102 -96
c0 -54 -45 -95 -105 -95c-56 0 -100 42 -100 95s46 96 103 96zM356 839c-31 0 -53 -23 -53 -56c0 -32 22 -56 52 -56c31 0 51 22 51 55s-21 57 -50 57z" />
    <glyph glyph-name="Uhungarumlaut" unicode="&#x170;" horiz-adv-x="685" 
d="M84 634h78v-316c0 -150 3 -174 22 -207c23 -36 83 -59 157 -59c80 0 145 31 171 82c14 29 20 84 20 184v316h70v-316c0 -149 -15 -211 -63 -258c-46 -45 -126 -71 -219 -71c-107 0 -179 32 -211 93c-23 45 -25 59 -25 236v316zM392 841l10 -1l47 -24l-1 -12l-162 -123
l-26 9zM540 841l11 -1l47 -24l-1 -12l-163 -123l-26 9z" />
    <glyph glyph-name="Zacute" unicode="&#x179;" horiz-adv-x="555" 
d="M51 634h492v-33l-419 -543h419l-9 -58h-522v35l425 544h-386v55zM400 849l14 -1l58 -30l-2 -13l-194 -120l-27 11z" />
    <glyph glyph-name="Zdotaccent" unicode="&#x17b;" horiz-adv-x="555" 
d="M51 634h492v-33l-419 -543h419l-9 -58h-522v35l425 544h-386v55zM276 793c25 0 45 -21 45 -46s-21 -45 -46 -45c-24 0 -45 21 -45 45c0 25 20 46 46 46z" />
    <glyph glyph-name="Amacron" unicode="&#x100;" horiz-adv-x="611" 
d="M299 634h62l245 -634h-85l-75 205h-276l-85 -205h-80zM427 254l-111 298l-125 -298h236zM187 789h266v-54h-266v54z" />
    <glyph glyph-name="Tcommaaccent" unicode="&#x162;" horiz-adv-x="555" 
d="M-29 634h614v-55h-269v-579h-78v579h-267v55zM219 -273l-18 18c34 25 42 32 53 47c18 21 29 46 29 62c0 14 -7 22 -22 26c-26 7 -36 17 -36 37c0 21 16 36 40 36c39 0 68 -34 68 -79c0 -47 -28 -93 -84 -134c-14 -11 -23 -17 -26 -17c-1 0 -1 0 -4 4z" />
    <glyph glyph-name="Tcommaaccent" unicode="&#x21a;" horiz-adv-x="555" 
d="M-29 634h614v-55h-269v-579h-78v579h-267v55zM219 -273l-18 18c34 25 42 32 53 47c18 21 29 46 29 62c0 14 -7 22 -22 26c-26 7 -36 17 -36 37c0 21 16 36 40 36c39 0 68 -34 68 -79c0 -47 -28 -93 -84 -134c-14 -11 -23 -17 -26 -17c-1 0 -1 0 -4 4z" />
    <glyph glyph-name="Emacron" unicode="&#x112;" 
d="M100 634h409v-55h-331v-214h293v-56h-293v-251h333v-58h-411v634zM164 789h266v-54h-266v54z" />
    <glyph glyph-name="Imacron" unicode="&#x12a;" horiz-adv-x="278" 
d="M100 634h78v-634h-78v634zM34 789h210v-54h-210v54z" />
    <glyph glyph-name="Iogonek" unicode="&#x12e;" horiz-adv-x="278" 
d="M100 634h79v-634c-55 -53 -79 -90 -79 -121c0 -26 18 -40 50 -40c12 0 26 2 43 7h7l-1 -5c-4 -14 -5 -17 -14 -22c-13 -9 -43 -17 -64 -17c-48 0 -80 28 -80 70c0 41 34 85 99 128h-40v634z" />
    <glyph glyph-name="Kcommaaccent" unicode="&#x136;" horiz-adv-x="592" 
d="M100 634h78v-634h-78v634zM499 634h101l-325 -282l340 -352h-110l-322 339zM265 -273l-18 18c34 25 42 32 53 47c18 21 29 46 29 62c0 14 -7 22 -22 26c-26 7 -36 17 -36 37c0 21 16 36 40 36c39 0 68 -34 68 -79c0 -47 -28 -93 -84 -134c-14 -11 -23 -17 -26 -17
c-1 0 -1 0 -4 4z" />
    <glyph glyph-name="Lcommaaccent" unicode="&#x13b;" horiz-adv-x="481" 
d="M100 634h78v-576h320v-58h-398v634zM238 -273l-18 18c34 25 42 32 53 47c18 21 29 46 29 62c0 14 -7 22 -22 26c-26 7 -36 17 -36 37c0 21 16 36 40 36c39 0 68 -34 68 -79c0 -47 -28 -93 -84 -134c-14 -11 -23 -17 -26 -17c-1 0 -1 0 -4 4z" />
    <glyph glyph-name="Ncommaaccent" unicode="&#x145;" horiz-adv-x="722" 
d="M85 634h59l432 -504l-14 504h70l-1 -631l-34 -12l-457 528l15 -519h-70v634zM302 -273l-18 18c34 25 42 32 53 47c18 21 29 46 29 62c0 14 -7 22 -22 26c-26 7 -36 17 -36 37c0 21 16 36 40 36c39 0 68 -34 68 -79c0 -47 -28 -93 -84 -134c-14 -11 -23 -17 -26 -17
c-1 0 -1 0 -4 4z" />
    <glyph glyph-name="Omacron" unicode="&#x14c;" horiz-adv-x="778" 
d="M404 651c185 0 321 -138 321 -326c0 -122 -62 -236 -160 -294c-50 -30 -120 -48 -183 -48c-183 0 -329 147 -329 330c0 112 60 224 151 282c61 38 124 56 200 56zM390 593c-146 0 -248 -108 -248 -263c0 -161 114 -289 256 -289c135 0 238 116 238 266
c0 81 -32 166 -84 221c-40 42 -97 65 -162 65zM256 789h266v-54h-266v54z" />
    <glyph glyph-name="Rcommaaccent" unicode="&#x156;" horiz-adv-x="611" 
d="M100 634l171 3c93 0 137 -7 171 -28c43 -27 72 -83 72 -143c0 -80 -43 -136 -135 -174c39 -72 115 -179 152 -215c25 -24 56 -40 88 -44l-10 -31c-2 -5 -6 -7 -17 -7c-63 0 -100 14 -140 55c-38 39 -85 108 -153 224c-26 -4 -47 -5 -82 -5c-11 0 -19 0 -39 1v-270h-78
v634zM178 582v-260c28 -2 48 -3 68 -3c127 0 183 42 183 138c0 54 -20 94 -57 112c-24 11 -56 16 -105 16c-22 0 -67 -2 -89 -3zM264 -273l-18 18c34 25 42 32 53 47c18 21 29 46 29 62c0 14 -7 22 -22 26c-26 7 -36 17 -36 37c0 21 16 36 40 36c39 0 68 -34 68 -79
c0 -47 -28 -93 -84 -134c-14 -11 -23 -17 -26 -17c-1 0 -1 0 -4 4z" />
    <glyph glyph-name="Gcommaaccent" unicode="&#x122;" horiz-adv-x="704" 
d="M561 314h79v-298c-91 -18 -174 -27 -233 -27c-91 0 -162 16 -219 50c-84 51 -135 148 -135 258c0 140 76 260 200 314c53 23 117 35 189 35c52 0 144 -11 167 -21c7 -3 10 -6 11 -12l2 -48v-3c0 -2 -1 -4 -3 -6l-8 -6c-1 -1 -2 -2 -3 -2s-2 0 -3 1
c-67 31 -124 44 -187 44c-167 0 -276 -110 -276 -279c0 -168 109 -272 285 -272c46 0 82 4 134 16v256zM366 -273l-18 18c34 25 42 32 53 47c18 21 29 46 29 62c0 14 -7 22 -22 26c-26 7 -36 17 -36 37c0 21 16 36 40 36c39 0 68 -34 68 -79c0 -47 -28 -93 -84 -134
c-14 -11 -23 -17 -26 -17c-1 0 -1 0 -4 4z" />
    <glyph glyph-name="Umacron" unicode="&#x16a;" horiz-adv-x="685" 
d="M84 634h78v-316c0 -150 3 -174 22 -207c23 -36 83 -59 157 -59c80 0 145 31 171 82c14 29 20 84 20 184v316h70v-316c0 -149 -15 -211 -63 -258c-46 -45 -126 -71 -219 -71c-107 0 -179 32 -211 93c-23 45 -25 59 -25 236v316zM216 789h266v-54h-266v54z" />
    <glyph glyph-name="Uogonek" unicode="&#x172;" horiz-adv-x="685" 
d="M84 634h78v-316c0 -150 3 -174 22 -207c23 -36 83 -59 157 -59c80 0 145 31 171 82c14 29 20 84 20 184v316h70v-316c0 -185 -15 -225 -109 -293c-71 -53 -110 -104 -110 -146c0 -26 18 -40 49 -40c13 0 26 2 43 7h7l-1 -5c-2 -13 -5 -17 -13 -22
c-14 -10 -43 -17 -64 -17c-48 0 -80 28 -80 70c0 40 33 84 99 128c-44 -8 -74 -11 -106 -11c-103 0 -176 33 -208 93c-23 45 -25 59 -25 236v316z" />
    <glyph glyph-name="abreve" unicode="&#x103;" horiz-adv-x="500" 
d="M91 329l-4 45v2c3 8 3 8 10 12c41 28 105 45 164 45c51 0 91 -13 113 -36c15 -15 28 -56 27 -83l-1 -22l-3 -184v-26c0 -26 6 -34 25 -34c17 0 36 6 60 18l4 -2v-33c0 -5 -2 -8 -7 -11c-25 -15 -73 -30 -96 -30c-25 0 -40 12 -47 38c-65 -25 -123 -38 -164 -38
c-69 0 -109 44 -109 118c0 57 21 84 77 100c53 15 116 28 190 37v19c0 67 -1 73 -14 88c-15 18 -41 26 -80 26c-59 0 -92 -15 -122 -53zM329 69v134c-55 -7 -94 -15 -144 -30c-42 -12 -52 -23 -52 -57c0 -46 25 -70 74 -70c34 0 69 7 122 23zM121 629h33
c11 -54 46 -84 95 -84c50 0 85 30 96 84h33v-10c0 -72 -56 -129 -129 -129c-72 0 -128 57 -128 129v10z" />
    <glyph glyph-name="aogonek" unicode="&#x105;" horiz-adv-x="500" 
d="M114 325l-23 4l-4 45v2c3 8 3 8 10 12c41 28 105 45 164 45c51 0 91 -13 113 -36c15 -15 28 -56 27 -83l-1 -22l-3 -184v-26c0 -26 6 -34 25 -34c17 0 36 6 60 18l4 -2v-33c0 -7 -2 -8 -25 -19c-48 -23 -98 -88 -98 -127c0 -24 18 -38 47 -38c13 0 28 2 43 6h6l-1 -5
c-2 -13 -5 -16 -13 -21c-14 -9 -41 -16 -61 -16c-47 0 -78 27 -78 67c0 36 24 70 79 112c-27 1 -43 13 -49 38c-65 -25 -123 -38 -164 -38c-69 0 -109 44 -109 118c0 57 21 84 77 100c52 15 117 28 190 37v19c0 67 -1 73 -14 88c-15 18 -41 26 -80 26
c-59 0 -92 -15 -122 -53zM329 69v134c-55 -7 -94 -15 -144 -30c-42 -12 -52 -23 -52 -57c0 -46 25 -70 74 -70c34 0 69 7 122 23z" />
    <glyph glyph-name="cacute" unicode="&#x107;" horiz-adv-x="444" 
d="M388 345h-16c-31 25 -56 34 -93 34c-92 0 -149 -62 -149 -163c0 -100 59 -170 145 -170c46 0 91 15 135 45l7 -4v-31c0 -5 -1 -8 -7 -12c-41 -31 -116 -56 -168 -56c-111 0 -191 85 -191 203c0 80 34 146 101 193c45 32 99 49 155 49c44 0 84 -12 109 -34
c5 -4 5 -5 5 -17s-1 -14 -5 -17zM358 634h10l57 -18v-11l-156 -140l-26 6z" />
    <glyph glyph-name="ccaron" unicode="&#x10d;" horiz-adv-x="444" 
d="M388 345h-16c-31 25 -56 34 -93 34c-92 0 -149 -62 -149 -163c0 -100 59 -170 145 -170c46 0 91 15 135 45l7 -4v-31c0 -5 -1 -8 -7 -12c-41 -31 -116 -56 -168 -56c-111 0 -191 85 -191 203c0 80 34 146 101 193c45 32 99 49 155 49c44 0 84 -12 109 -34
c5 -4 5 -5 5 -17s-1 -14 -5 -17zM307 475h-33l-116 155l22 17l110 -101l111 101l21 -17z" />
    <glyph glyph-name="dcaron" unicode="&#x10f;" horiz-adv-x="595" 
d="M400 692h72v-692h-72v43c-64 -37 -110 -52 -160 -52c-114 0 -188 79 -188 201c0 82 31 145 93 189c49 35 106 52 171 52c30 0 50 -3 84 -11v270zM400 88v254c-31 22 -66 33 -112 33c-102 0 -161 -60 -161 -163c0 -97 60 -163 150 -163c38 0 77 12 123 39zM520 473l-17 18
c29 22 39 31 51 46c17 20 28 45 28 61c0 12 -7 20 -22 24c-24 7 -34 17 -34 36c0 21 16 35 39 35c37 0 66 -33 66 -77c0 -45 -27 -89 -81 -129c-14 -10 -23 -16 -26 -16c-1 0 -2 1 -4 2z" />
    <glyph glyph-name="ecaron" unicode="&#x11b;" horiz-adv-x="444" 
d="M405 242l-274 -37c4 -100 54 -159 135 -159c43 0 84 13 122 38h9l10 -30c0 -7 -1 -7 -9 -13c-53 -36 -104 -54 -157 -54c-115 0 -191 87 -191 218c0 133 82 229 197 229c99 0 159 -73 158 -192zM130 248l196 29c-5 70 -38 111 -90 111c-63 0 -102 -52 -106 -140zM250 475
h-33l-116 155l22 17l110 -101l111 101l21 -17z" />
    <glyph glyph-name="edotaccent" unicode="&#x117;" horiz-adv-x="444" 
d="M405 242l-274 -37c4 -100 54 -159 135 -159c43 0 84 13 122 38h9l10 -30c0 -7 -1 -7 -9 -13c-53 -36 -104 -54 -157 -54c-115 0 -191 87 -191 218c0 133 82 229 197 229c99 0 159 -73 158 -192zM130 248l196 29c-5 70 -38 111 -90 111c-63 0 -102 -52 -106 -140zM241 592
c23 0 42 -19 42 -42s-19 -42 -42 -42s-42 19 -42 42s19 42 42 42z" />
    <glyph glyph-name="eogonek" unicode="&#x119;" horiz-adv-x="444" 
d="M405 242l-274 -37c4 -99 54 -158 135 -158c43 0 84 12 122 37h9l10 -30c2 -7 -10 -16 -47 -37c-32 -16 -39 -21 -53 -34c-35 -33 -59 -74 -59 -98c0 -22 20 -39 47 -39c10 0 30 3 43 7h7l-1 -5c-2 -13 -5 -16 -13 -21c-14 -9 -41 -16 -61 -16c-47 0 -78 27 -78 67
c0 35 26 73 76 111c-11 -1 -16 -1 -25 -1c-118 0 -192 83 -192 217c0 136 79 228 196 228c100 0 159 -71 158 -191zM129 248l197 29c-5 70 -38 111 -90 111c-63 0 -103 -52 -107 -140z" />
    <glyph glyph-name="gbreve" unicode="&#x11f;" horiz-adv-x="481" 
d="M463 421v-50h-101c32 -31 45 -63 45 -108c0 -55 -26 -100 -76 -131c-27 -18 -50 -27 -128 -50c-40 -12 -41 -13 -41 -24c0 -21 18 -27 133 -43c90 -12 114 -18 139 -36c28 -20 41 -44 41 -75c0 -95 -127 -171 -283 -171c-106 0 -169 37 -169 100c0 55 47 96 165 141
c-67 11 -92 29 -92 67c0 20 8 33 25 42c8 4 17 8 67 26c-42 8 -63 18 -86 40c-29 28 -45 69 -45 113c0 98 75 172 174 172c25 0 44 -4 70 -13h162zM254 142c55 15 81 50 81 106c0 82 -47 143 -109 143c-59 0 -97 -43 -97 -111c0 -84 47 -139 119 -139c1 0 3 0 6 1zM232 -37
c-100 -47 -135 -77 -135 -117c0 -38 53 -64 129 -64c98 0 182 50 182 108c0 43 -32 56 -176 73zM112 629h33c11 -54 46 -84 95 -84c50 0 85 30 96 84h33v-10c0 -72 -56 -129 -129 -129c-72 0 -128 57 -128 129v10z" />
    <glyph glyph-name="lacute" unicode="&#x13a;" horiz-adv-x="241" 
d="M84 692h72v-692h-72v692zM248 883l14 -2l58 -30l-2 -12l-194 -121l-27 12z" />
    <glyph glyph-name="lcaron" unicode="&#x13e;" horiz-adv-x="280" 
d="M84 692h72v-692h-72v692zM205 473l-17 18c29 22 39 31 51 46c17 20 28 45 28 61c0 12 -7 20 -22 24c-24 7 -34 17 -34 36c0 21 16 35 39 35c37 0 66 -33 66 -77c0 -45 -27 -89 -81 -129c-14 -10 -23 -16 -26 -16c-1 0 -2 1 -4 2z" />
    <glyph glyph-name="nacute" unicode="&#x144;" 
d="M84 422h72v-65c71 55 120 76 179 76c49 0 85 -18 105 -52c14 -25 16 -43 16 -128v-253h-72v245c0 65 -1 74 -11 92c-11 22 -33 34 -61 34c-44 0 -101 -25 -156 -68v-303h-72v422zM376 634h10l57 -18v-11l-156 -140l-26 6z" />
    <glyph glyph-name="ncaron" unicode="&#x148;" 
d="M84 422h72v-65c71 55 120 76 179 76c49 0 85 -18 105 -52c14 -25 16 -43 16 -128v-253h-72v245c0 65 -1 74 -11 92c-11 22 -33 34 -61 34c-44 0 -101 -25 -156 -68v-303h-72v422zM305 475h-33l-116 155l22 17l110 -101l111 101l21 -17z" />
    <glyph glyph-name="ohungarumlaut" unicode="&#x151;" horiz-adv-x="556" 
d="M285 433c131 0 220 -86 220 -212c0 -134 -102 -234 -240 -234c-123 0 -214 92 -214 217c0 133 98 229 234 229zM277 384c-88 0 -147 -60 -147 -149c0 -109 69 -198 152 -198s144 71 144 167c0 102 -65 180 -149 180zM319 633h10l50 -15v-11l-139 -147l-27 4zM447 633h10
l50 -15v-11l-139 -147l-27 4z" />
    <glyph glyph-name="racute" unicode="&#x155;" horiz-adv-x="333" 
d="M84 422h72v-116c37 59 46 73 63 90c25 25 51 37 80 37c21 0 48 -8 59 -18c4 -3 5 -6 5 -15c0 -6 -1 -11 -3 -15l-19 -39h-13c-13 9 -26 13 -45 13c-42 0 -63 -20 -127 -124v-235h-72v422zM285 634h10l57 -18v-11l-156 -140l-26 6z" />
    <glyph glyph-name="sacute" unicode="&#x15b;" horiz-adv-x="389" 
d="M329 358l-17 -8c-38 25 -65 34 -102 34c-51 0 -86 -24 -86 -60c0 -33 20 -49 104 -80c57 -21 74 -30 95 -48c22 -20 33 -46 33 -78c0 -78 -72 -130 -181 -130c-35 0 -85 8 -112 19c-5 1 -6 3 -7 9l-11 57l18 9c44 -29 80 -41 127 -41c59 0 94 25 94 66
c0 35 -19 51 -91 77c-53 19 -72 27 -94 41c-28 19 -46 51 -46 85c0 73 68 123 168 123c33 0 78 -6 93 -13c3 -1 5 -4 6 -8zM274 634h10l57 -18v-11l-156 -140l-26 6z" />
    <glyph glyph-name="scommaaccent" unicode="&#x219;" horiz-adv-x="389" 
d="M329 358l-17 -8c-38 25 -65 34 -102 34c-51 0 -86 -24 -86 -60c0 -33 20 -49 104 -80c57 -21 74 -30 95 -48c22 -20 33 -46 33 -78c0 -78 -72 -130 -181 -130c-35 0 -85 8 -112 19c-5 1 -6 3 -7 9l-11 57l18 9c44 -29 80 -41 127 -41c59 0 94 25 94 66
c0 35 -19 51 -91 77c-53 19 -72 27 -94 41c-28 19 -46 51 -46 85c0 73 68 123 168 123c33 0 78 -6 93 -13c3 -1 5 -4 6 -8zM139 -261l-17 18c29 21 40 31 51 45c17 21 28 45 28 61c0 12 -7 20 -22 24c-24 7 -34 17 -34 36c0 20 16 35 39 35c37 0 66 -33 66 -77
c0 -45 -27 -88 -81 -129c-16 -12 -23 -16 -26 -16c-1 0 -2 1 -4 3z" />
    <glyph glyph-name="tcaron" unicode="&#x165;" horiz-adv-x="333" 
d="M161 422h170v-50h-170v-216c0 -80 19 -109 72 -109c27 0 52 7 97 29l5 -29c1 -2 1 -3 1 -4c0 -3 -4 -7 -20 -17c-38 -23 -81 -37 -116 -37c-46 0 -80 19 -97 53c-11 23 -14 47 -14 114v216h-52v18l109 114h18zM240 473l-17 18c29 22 39 31 51 46c17 20 28 45 28 61
c0 12 -7 20 -22 24c-24 7 -34 17 -34 36c0 21 16 35 39 35c37 0 66 -33 66 -77c0 -45 -27 -89 -81 -129c-14 -10 -23 -16 -26 -16c-1 0 -2 1 -4 2z" />
    <glyph glyph-name="uring" unicode="&#x16f;" 
d="M454 422v-422h-72v64c-69 -55 -116 -76 -171 -76c-57 0 -99 26 -118 75c-10 27 -12 49 -12 150v209h72v-209c0 -94 1 -106 11 -126c12 -23 37 -36 67 -36c41 0 98 25 151 67v304h72zM268 658c56 0 100 -41 100 -93s-44 -92 -102 -92c-54 0 -97 41 -97 92
c0 52 44 93 99 93zM270 618c-30 0 -52 -22 -52 -53c0 -32 22 -55 51 -55c30 0 50 21 50 53s-21 55 -49 55z" />
    <glyph glyph-name="uhungarumlaut" unicode="&#x171;" 
d="M454 422v-422h-72v64c-69 -55 -116 -76 -171 -76c-57 0 -99 26 -118 75c-10 27 -12 49 -12 150v209h72v-209c0 -94 1 -106 11 -126c12 -23 37 -36 67 -36c41 0 98 25 151 67v304h72zM293 633h10l50 -15v-11l-139 -147l-27 4zM421 633h10l50 -15v-11l-139 -147l-27 4z" />
    <glyph glyph-name="zacute" unicode="&#x17a;" horiz-adv-x="389" 
d="M37 422h350v-31l-278 -336h276l-13 -55h-362v35l277 337h-250v50zM291 634h10l57 -18v-11l-156 -140l-26 6z" />
    <glyph glyph-name="zdotaccent" unicode="&#x17c;" horiz-adv-x="389" 
d="M37 422h350v-31l-278 -336h276l-13 -55h-362v35l277 337h-250v50zM210 592c23 0 42 -19 42 -42s-19 -42 -42 -42s-42 19 -42 42s19 42 42 42z" />
    <glyph glyph-name="tcommaaccent" unicode="&#x163;" horiz-adv-x="333" 
d="M161 422h170v-50h-170v-216c0 -80 19 -109 72 -109c27 0 52 7 97 29l5 -29c1 -2 1 -3 1 -4c0 -3 -4 -7 -20 -17c-38 -23 -81 -37 -116 -37c-46 0 -80 19 -97 53c-11 23 -14 47 -14 114v216h-52v18l109 114h18zM150 -261l-17 18c29 21 40 31 51 45c17 21 28 45 28 61
c0 12 -7 20 -22 24c-24 7 -34 17 -34 36c0 20 16 35 39 35c37 0 66 -33 66 -77c0 -45 -27 -88 -81 -129c-16 -12 -23 -16 -26 -16c-1 0 -2 1 -4 3z" />
    <glyph glyph-name="tcommaaccent" unicode="&#x21b;" horiz-adv-x="333" 
d="M161 422h170v-50h-170v-216c0 -80 19 -109 72 -109c27 0 52 7 97 29l5 -29c1 -2 1 -3 1 -4c0 -3 -4 -7 -20 -17c-38 -23 -81 -37 -116 -37c-46 0 -80 19 -97 53c-11 23 -14 47 -14 114v216h-52v18l109 114h18zM150 -261l-17 18c29 21 40 31 51 45c17 21 28 45 28 61
c0 12 -7 20 -22 24c-24 7 -34 17 -34 36c0 20 16 35 39 35c37 0 66 -33 66 -77c0 -45 -27 -88 -81 -129c-16 -12 -23 -16 -26 -16c-1 0 -2 1 -4 3z" />
    <glyph glyph-name="amacron" unicode="&#x101;" horiz-adv-x="500" 
d="M91 329l-4 45v2c3 8 3 8 10 12c41 28 105 45 164 45c51 0 91 -13 113 -36c15 -15 28 -56 27 -83l-1 -22l-3 -184v-26c0 -26 6 -34 25 -34c17 0 36 6 60 18l4 -2v-33c0 -5 -2 -8 -7 -11c-25 -15 -73 -30 -96 -30c-25 0 -40 12 -47 38c-65 -25 -123 -38 -164 -38
c-69 0 -109 44 -109 118c0 57 21 84 77 100c53 15 116 28 190 37v19c0 67 -1 73 -14 88c-15 18 -41 26 -80 26c-59 0 -92 -15 -122 -53zM329 69v134c-55 -7 -94 -15 -144 -30c-42 -12 -52 -23 -52 -57c0 -46 25 -70 74 -70c34 0 69 7 122 23zM121 586h258v-52h-258v52z" />
    <glyph glyph-name="emacron" unicode="&#x113;" horiz-adv-x="444" 
d="M405 242l-274 -37c4 -100 54 -159 135 -159c43 0 84 13 122 38h9l10 -30c0 -7 -1 -7 -9 -13c-53 -36 -104 -54 -157 -54c-115 0 -191 87 -191 218c0 133 82 229 197 229c99 0 159 -73 158 -192zM130 248l196 29c-5 70 -38 111 -90 111c-63 0 -102 -52 -106 -140zM110 586
h258v-52h-258v52z" />
    <glyph glyph-name="imacron" unicode="&#x12b;" horiz-adv-x="241" 
d="M84 422h72v-422h-72v422zM19 586h202v-52h-202v52z" />
    <glyph glyph-name="kcommaaccent" unicode="&#x137;" horiz-adv-x="463" 
d="M84 692h72v-692h-72v692zM369 422h99l-224 -181l233 -241h-101l-214 228zM198 -261l-17 18c29 21 40 31 51 45c17 21 28 45 28 61c0 12 -7 20 -22 24c-24 7 -34 17 -34 36c0 20 16 35 39 35c37 0 66 -33 66 -77c0 -45 -27 -88 -81 -129c-16 -12 -23 -16 -26 -16
c-1 0 -2 1 -4 3z" />
    <glyph glyph-name="lcommaaccent" unicode="&#x13c;" horiz-adv-x="241" 
d="M84 692h72v-692h-72v692zM65 -261l-17 18c29 21 40 31 51 45c17 21 28 45 28 61c0 12 -7 20 -22 24c-24 7 -34 17 -34 36c0 20 16 35 39 35c37 0 66 -33 66 -77c0 -45 -27 -88 -81 -129c-16 -12 -23 -16 -26 -16c-1 0 -2 1 -4 3z" />
    <glyph glyph-name="ncommaaccent" unicode="&#x146;" 
d="M84 422h72v-65c71 55 120 76 179 76c49 0 85 -18 105 -52c14 -25 16 -43 16 -128v-253h-72v245c0 65 -1 74 -11 92c-11 22 -33 34 -61 34c-44 0 -101 -25 -156 -68v-303h-72v422zM213 -261l-17 18c29 21 40 31 51 45c17 21 28 45 28 61c0 12 -7 20 -22 24
c-24 7 -34 17 -34 36c0 20 16 35 39 35c37 0 66 -33 66 -77c0 -45 -27 -88 -81 -129c-16 -12 -23 -16 -26 -16c-1 0 -2 1 -4 3z" />
    <glyph glyph-name="omacron" unicode="&#x14d;" horiz-adv-x="555" 
d="M285 433c131 0 220 -86 220 -212c0 -134 -102 -234 -240 -234c-123 0 -214 92 -214 217c0 133 98 229 234 229zM277 384c-88 0 -147 -60 -147 -149c0 -109 69 -198 152 -198s144 71 144 167c0 102 -65 180 -149 180zM149 586h258v-52h-258v52z" />
    <glyph glyph-name="rcommaaccent" unicode="&#x157;" horiz-adv-x="333" 
d="M84 422h72v-116c37 60 47 73 63 90c25 25 51 37 80 37c21 0 48 -8 59 -18c4 -4 5 -6 5 -15c0 -6 -1 -11 -3 -15l-19 -39h-13c-13 9 -26 13 -45 13c-42 0 -62 -19 -127 -124v-235h-72v422zM65 -261l-17 18c29 21 40 31 51 45c17 21 28 45 28 61c0 12 -7 20 -22 24
c-24 7 -34 17 -34 36c0 20 16 35 39 35c37 0 66 -33 66 -77c0 -45 -27 -88 -81 -129c-16 -12 -23 -16 -26 -16c-1 0 -2 1 -4 3z" />
    <glyph glyph-name="umacron" unicode="&#x16b;" 
d="M454 422v-422h-72v64c-69 -55 -116 -76 -171 -76c-57 0 -99 26 -118 75c-10 27 -12 49 -12 150v209h72v-209c0 -94 1 -106 11 -126c12 -23 37 -36 67 -36c41 0 98 25 151 67v304h72zM140 586h258v-52h-258v52z" />
    <glyph glyph-name="uogonek" unicode="&#x173;" 
d="M81 422h72v-209c0 -94 1 -106 11 -126c12 -23 37 -36 67 -36c41 0 98 25 151 67v304h72v-422c-54 -53 -76 -87 -76 -118c0 -24 18 -38 48 -38c12 0 26 2 41 7h7l-1 -5c-2 -13 -5 -17 -13 -22c-14 -9 -41 -16 -61 -16c-47 0 -78 27 -78 68c0 39 32 80 96 124h-35v64
c-69 -55 -116 -76 -171 -76c-57 0 -99 26 -118 75c-10 27 -12 49 -12 150v209z" />
    <glyph glyph-name="rcaron" unicode="&#x159;" horiz-adv-x="333" 
d="M84 422h72v-116c37 60 47 73 63 90c25 25 51 37 80 37c21 0 48 -8 59 -18c4 -3 5 -7 5 -14c0 -6 -1 -12 -3 -16l-19 -39h-13c-13 9 -26 13 -45 13c-42 0 -64 -21 -127 -124v-235h-72v422zM206 475h-33l-116 155l22 17l110 -101l111 101l21 -17z" />
    <glyph glyph-name="scedilla" unicode="&#x15f;" horiz-adv-x="389" 
d="M238 -6l-37 -58v-10c3 -2 6 -4 8 -6c35 -23 44 -35 44 -55c0 -46 -54 -95 -103 -95c-26 0 -58 17 -58 30c0 4 1 6 4 9l16 20h13c14 -16 24 -22 41 -22c22 0 40 15 40 34c0 15 -16 29 -60 52v21l53 75c-12 -1 -16 -1 -23 -1c-36 0 -87 8 -113 19c-5 1 -7 3 -8 9l-10 57
l18 9c44 -29 80 -41 127 -41c59 0 94 25 94 66c0 35 -19 52 -91 77c-54 19 -72 27 -94 41c-28 19 -46 51 -46 85c0 73 68 123 168 123c33 0 78 -6 93 -13c4 -1 6 -4 6 -8l9 -54l-17 -8c-38 25 -64 34 -102 34c-51 0 -86 -24 -86 -60c0 -33 20 -48 104 -80
c57 -21 75 -30 95 -49c22 -19 33 -46 33 -77c0 -62 -42 -106 -118 -124z" />
    <glyph glyph-name="scedilla" unicode="&#xf6c2;" horiz-adv-x="389" 
d="M238 -6l-37 -58v-10c3 -2 6 -4 8 -6c35 -23 44 -35 44 -55c0 -46 -54 -95 -103 -95c-26 0 -58 17 -58 30c0 4 1 6 4 9l16 20h13c14 -16 24 -22 41 -22c22 0 40 15 40 34c0 15 -16 29 -60 52v21l53 75c-12 -1 -16 -1 -23 -1c-36 0 -87 8 -113 19c-5 1 -7 3 -8 9l-10 57
l18 9c44 -29 80 -41 127 -41c59 0 94 25 94 66c0 35 -19 52 -91 77c-54 19 -72 27 -94 41c-28 19 -46 51 -46 85c0 73 68 123 168 123c33 0 78 -6 93 -13c4 -1 6 -4 6 -8l9 -54l-17 -8c-38 25 -64 34 -102 34c-51 0 -86 -24 -86 -60c0 -33 20 -48 104 -80
c57 -21 75 -30 95 -49c22 -19 33 -46 33 -77c0 -62 -42 -106 -118 -124z" />
    <glyph glyph-name="gcommaaccent" unicode="&#x123;" horiz-adv-x="481" 
d="M463 421v-50h-101c32 -31 45 -63 45 -108c0 -55 -26 -100 -76 -131c-27 -18 -50 -27 -128 -50c-40 -12 -41 -13 -41 -24c0 -21 18 -27 133 -43c90 -12 114 -18 139 -36c28 -20 41 -44 41 -75c0 -95 -127 -171 -283 -171c-106 0 -169 37 -169 100c0 55 47 96 165 141
c-67 11 -92 29 -92 67c0 20 8 33 25 42c8 4 17 8 67 26c-42 8 -63 18 -86 40c-29 28 -45 69 -45 113c0 98 75 172 174 172c25 0 44 -4 70 -13h162zM254 142c55 15 81 50 81 106c0 82 -47 143 -109 143c-59 0 -97 -43 -97 -111c0 -84 47 -139 119 -139c1 0 3 0 6 1zM232 -37
c-100 -47 -135 -77 -135 -117c0 -38 53 -64 129 -64c98 0 182 50 182 108c0 43 -32 56 -176 73zM290 696l17 -18c-32 -24 -40 -31 -51 -46c-17 -20 -28 -45 -28 -60c0 -13 7 -21 22 -25c24 -7 34 -17 34 -35c0 -21 -16 -36 -39 -36c-37 0 -66 33 -66 77c0 46 26 88 81 130
c16 12 23 16 26 16c1 0 1 0 4 -3z" />
    <glyph glyph-name="iogonek" unicode="&#x12f;" horiz-adv-x="241" 
d="M84 422h72v-422c-54 -54 -76 -87 -76 -118c0 -24 18 -38 48 -38c12 0 26 2 41 7h7l-1 -5c-2 -13 -5 -17 -13 -22c-14 -9 -41 -16 -61 -16c-47 0 -78 27 -78 68c0 39 31 80 96 124h-35v422zM120 673c25 0 45 -20 45 -45s-20 -45 -45 -45c-24 0 -45 20 -45 44
c0 26 20 46 45 46z" />
    <glyph glyph-name="Scommaaccent" unicode="&#x218;" horiz-adv-x="500" 
d="M418 616l9 -55c0 -2 0 -2 1 -4c0 -1 -2 -2 -3 -3l-11 -5c-3 -1 -3 -1 -4 -1c-2 0 -4 1 -10 6c-32 22 -90 39 -136 39c-80 0 -132 -42 -132 -106c0 -30 11 -54 34 -71s35 -24 112 -57c73 -31 106 -50 134 -78s44 -66 44 -107c0 -110 -97 -185 -239 -185
c-48 0 -133 12 -163 23c-11 4 -16 7 -17 13l-9 56v5c0 2 1 4 4 5l8 4l5 1c1 0 3 -1 7 -3c43 -27 119 -47 178 -47c87 0 147 46 147 112c0 25 -10 52 -27 69c-20 21 -47 36 -109 62c-87 37 -108 48 -137 73c-31 27 -48 65 -48 109c0 106 90 175 229 175c39 0 101 -9 122 -18
c7 -2 10 -6 11 -12zM191 -273l-18 18c34 25 42 32 53 47c18 21 29 46 29 62c0 14 -7 22 -22 26c-26 7 -36 17 -36 37c0 21 16 36 40 36c39 0 68 -34 68 -79c0 -47 -28 -93 -84 -134c-14 -11 -23 -17 -26 -17c-1 0 -1 0 -4 4z" />
    <glyph glyph-name="Dcroat" unicode="&#x110;" horiz-adv-x="722" 
d="M100 296h-91v55h91v284c97 3 161 5 223 5c141 0 200 -16 257 -71c56 -54 90 -144 90 -239c0 -105 -42 -198 -116 -259c-62 -51 -138 -71 -265 -71h-189v296zM179 296v-246h115c100 0 169 21 212 65c46 45 75 127 75 211c0 97 -40 184 -103 227c-41 28 -81 37 -167 37
c-43 0 -43 0 -112 -3l-20 -1v-235h189v-55h-189z" />
    <glyph glyph-name="dcroat" unicode="&#x111;" horiz-adv-x="556" 
d="M469 590h78v-50h-78v-540h-72v43c-65 -38 -110 -52 -160 -52c-113 0 -186 79 -186 201c0 82 31 145 93 189c47 35 104 52 169 52c30 0 50 -3 84 -11v118h-130v50h130v102h72v-102zM397 88v254c-32 23 -66 33 -111 33c-102 0 -160 -60 -160 -163c0 -97 60 -163 148 -163
c39 0 76 12 123 39z" />
    <glyph glyph-name="middot" unicode="&#xe027;" horiz-adv-x="278" 
d="M138 292c29 0 52 -24 52 -52c0 -29 -23 -52 -53 -52c-28 0 -51 24 -51 52s23 52 52 52z" />
    <glyph glyph-name="commaaccent" unicode="&#xf6c3;" horiz-adv-x="500" 
d="M194 -261l-17 18c29 21 40 31 51 45c17 21 28 45 28 61c0 12 -7 20 -22 24c-24 7 -34 17 -34 36c0 20 16 35 39 35c37 0 66 -33 66 -77c0 -45 -27 -88 -81 -129c-16 -12 -23 -16 -26 -16c-1 0 -2 1 -4 3z" />
    <glyph glyph-name="nbspace" unicode="&#xe028;" horiz-adv-x="241" 
 />
    <glyph glyph-name="lozenge" unicode="&#x25ca;" horiz-adv-x="634" 
d="M317 659l247 -342l-247 -341l-247 341zM317 575l-188 -258l188 -257l187 257z" />
    <glyph glyph-name="Delta" unicode="&#x394;" horiz-adv-x="634" 
d="M26 0l252 634h77l254 -634h-583zM128 67h377l-188 480z" />
    <glyph glyph-name="Delta" unicode="&#x2206;" horiz-adv-x="634" 
d="M26 0l252 634h77l254 -634h-583zM128 67h377l-188 480z" />
    <glyph glyph-name="notequal" unicode="&#x2260;" 
d="M311 352l-34 -72h182c12 0 14 -2 14 -13v-17c0 -11 -2 -13 -14 -13h-202l-48 -104c-4 -7 -6 -9 -9 -9c-2 0 -7 1 -9 3l-18 10c-7 3 -9 5 -9 8c0 1 1 5 3 9l39 83h-129c-11 0 -13 2 -13 13v17c0 11 2 13 13 13h149l33 72h-182c-11 0 -13 2 -13 13v17c0 11 2 13 13 13h203
l49 105c3 7 6 10 8 10c1 0 7 -2 9 -3l18 -10c8 -4 9 -5 9 -8c0 -2 -1 -6 -3 -10l-39 -84h128c12 0 14 -2 14 -13v-17c0 -11 -2 -13 -14 -13h-148z" />
    <glyph glyph-name="radical" unicode="&#x221a;" horiz-adv-x="466" 
d="M634 789v-67h-186l-203 -722h-88l-77 283h-80v67h138l34 -121c4 -14 6 -23 13 -62c2 -12 6 -30 14 -70h5c2 10 4 17 4 19c9 43 18 84 28 122c6 27 14 60 25 98l24 85l102 368h247z" />
    <glyph glyph-name="lessequal" unicode="&#x2264;" 
d="M462 561v-64l-314 -139l314 -139v-64l-386 173v58zM462 138v-53h-386v53h386z" />
    <glyph glyph-name="greaterequal" unicode="&#x2265;" 
d="M76 155v64l314 139l-314 139v64l386 -175v-58zM76 85v53h386v-53h-386z" />
    <glyph glyph-name="summation" unicode="&#x2211;" horiz-adv-x="634" 
d="M569 713v-218h-65l-6 151h-392l240 -389l-240 -428h401l3 150h68v-217h-552v75l236 420l-236 383v73h543z" />
    <glyph glyph-name="partialdiff" unicode="&#x2202;" horiz-adv-x="476" 
d="M80 574l10 63c110 -15 175 -43 236 -100c77 -73 121 -183 121 -302c0 -63 -13 -113 -39 -153c-38 -57 -101 -92 -169 -92c-115 0 -210 97 -210 215c0 117 88 209 198 209c60 0 98 -19 139 -70c-32 84 -52 112 -106 157c-62 44 -115 66 -180 73zM242 360
c-79 0 -141 -70 -141 -159c0 -86 62 -156 137 -156c77 0 136 71 136 162c0 88 -56 153 -132 153z" />
    <glyph glyph-name="Amacron.small" unicode="&#xe001;" horiz-adv-x="463" 
d="M218 466h55l181 -466h-80l-51 141h-186l-57 -141h-72zM307 186l-72 199l-80 -199h152zM115 637h260v-53h-260v53z" />
    <glyph glyph-name="Abreve.small" unicode="&#xe000;" horiz-adv-x="463" 
d="M218 466h55l181 -466h-80l-51 141h-186l-57 -141h-72zM307 186l-72 199l-80 -199h152zM115 680h33c11 -52 47 -82 97 -82s85 30 96 82h33v-14c-1 -69 -58 -124 -129 -124c-73 0 -130 56 -130 128v10z" />
    <glyph glyph-name="Aogonek.small" unicode="&#xe002;" horiz-adv-x="463" 
d="M273 466l181 -466c-55 -54 -76 -87 -76 -118c0 -24 18 -38 48 -38c12 0 27 2 42 7h6l-1 -5c-2 -13 -4 -17 -12 -22c-14 -9 -42 -16 -62 -16c-47 0 -78 27 -78 68c0 39 31 80 96 124h-43l-51 141h-186l-57 -141h-72l210 466h55zM307 186l-72 199l-80 -199h152z" />
    <glyph glyph-name="Cacute.small" unicode="&#xe003;" horiz-adv-x="498" 
d="M477 439l-5 -37c0 -7 -2 -9 -6 -11l-6 -3c-3 -1 -4 -2 -5 -2s-4 1 -6 2c-43 25 -88 37 -133 37c-107 0 -181 -78 -181 -190s78 -195 182 -195c42 0 100 17 130 37c4 3 6 4 8 4l5 -1l6 -3c2 -1 3 -2 3 -4s0 -2 -1 -8l-11 -42c-2 -6 -4 -8 -8 -11c-22 -12 -85 -22 -136 -22
c-159 0 -261 92 -261 236c0 149 113 250 280 250c37 0 80 -6 128 -18c12 -4 17 -7 17 -13v-6zM370 688h11l57 -21v-12l-165 -134l-27 7z" />
    <glyph glyph-name="Ccaron.small" unicode="&#xe004;" horiz-adv-x="498" 
d="M477 439l-5 -37c0 -7 -2 -9 -6 -11l-6 -3c-3 -1 -4 -2 -5 -2s-4 1 -6 2c-43 25 -88 37 -133 37c-107 0 -181 -78 -181 -190s78 -195 182 -195c42 0 100 17 130 37c4 3 6 4 8 4l5 -1l6 -3c2 -1 3 -2 3 -4s0 -2 -1 -8l-11 -42c-2 -6 -4 -8 -8 -11c-22 -12 -85 -22 -136 -22
c-159 0 -261 92 -261 236c0 149 113 250 280 250c37 0 80 -6 128 -18c12 -4 17 -7 17 -13v-6zM304 529h-33l-121 156l22 17l116 -102l115 102l22 -17z" />
    <glyph glyph-name="Dcaron.small" unicode="&#xe005;" horiz-adv-x="586" 
d="M85 0v466c45 1 159 3 159 3c94 0 145 -10 194 -36c60 -34 97 -104 97 -186c0 -86 -38 -161 -104 -203c-53 -35 -108 -47 -219 -47c-40 0 -66 1 -127 3zM158 45l60 -1c157 0 234 64 234 194c0 80 -33 139 -91 165c-34 16 -70 21 -137 21c-23 0 -33 0 -66 -1v-378zM285 529
h-33l-121 156l22 17l115 -102l115 102l23 -17z" />
    <glyph glyph-name="Dcroat.small" unicode="&#xe006;" horiz-adv-x="586" 
d="M84 212h-67v48h67v206c45 1 160 3 160 3c94 0 145 -10 194 -36c60 -34 97 -104 97 -187c0 -85 -38 -160 -104 -202c-53 -35 -109 -47 -219 -47c-41 0 -67 1 -128 3v212zM157 212v-167c37 -1 57 -1 60 -1c158 0 235 64 235 194c0 79 -33 139 -91 165
c-35 16 -70 21 -138 21c-18 0 -31 0 -66 -1v-163h138v-48h-138z" />
    <glyph glyph-name="Emacron.small" unicode="&#xe009;" horiz-adv-x="441" 
d="M85 466h312v-50h-239v-150h211v-48h-211v-165h245v-53h-318v466zM104 637h260v-53h-260v53z" />
    <glyph glyph-name="Edotaccent.small" unicode="&#xe008;" horiz-adv-x="441" 
d="M85 466h312v-50h-239v-150h211v-48h-211v-165h245v-53h-318v466zM232 642c24 0 43 -19 43 -43s-19 -43 -44 -43c-22 0 -42 20 -42 43c0 24 19 43 43 43z" />
    <glyph glyph-name="Eogonek.small" unicode="&#xe00a;" horiz-adv-x="441" 
d="M403 53v-53c-56 -56 -76 -87 -76 -118c0 -24 17 -38 48 -38c12 0 26 2 41 7h7l-1 -5c-2 -13 -5 -17 -13 -22c-14 -9 -41 -16 -61 -16c-47 0 -78 27 -78 68c0 39 31 80 95 124h-280v466h312v-50h-239v-150h211v-48h-211v-165h245z" />
    <glyph glyph-name="Ecaron.small" unicode="&#xe007;" horiz-adv-x="441" 
d="M85 466h312v-50h-239v-150h211v-48h-211v-165h245v-53h-318v466zM250 529h-33l-121 156l22 17l116 -102l115 102l22 -17z" />
    <glyph glyph-name="Gcommaaccent.small" unicode="&#xe00c;" horiz-adv-x="553" 
d="M418 234h73v-216c-48 -18 -110 -28 -170 -28c-168 0 -269 89 -269 236c0 151 111 250 281 250c46 0 98 -7 131 -18c10 -3 12 -6 13 -19l1 -34c0 -6 -1 -10 -4 -12l-5 -3c-1 -1 -2 -1 -3 -1c-2 0 -2 0 -18 8c-41 19 -95 32 -135 32c-109 0 -178 -72 -178 -187
c0 -62 22 -119 62 -157c35 -33 78 -48 142 -48c31 0 50 2 79 10v187zM260 -261l-17 18c29 21 40 31 51 45c17 21 28 45 28 61c0 12 -7 20 -22 24c-24 7 -34 17 -34 36c0 20 16 35 39 35c37 0 66 -33 66 -77c0 -45 -27 -88 -81 -129c-16 -12 -23 -16 -26 -16c-1 0 -2 1 -4 3z
" />
    <glyph glyph-name="Imacron.small" unicode="&#xe00e;" horiz-adv-x="242" 
d="M85 466h73v-466h-73v466zM4 637h235v-53h-235v53z" />
    <glyph glyph-name="Iogonek.small" unicode="&#xe00f;" horiz-adv-x="242" 
d="M158 466v-466c-48 -53 -67 -87 -67 -117c0 -25 16 -39 45 -39c12 0 27 2 42 7h6l-1 -5c-2 -13 -4 -17 -12 -22c-14 -9 -42 -16 -62 -16c-45 0 -75 27 -75 68c0 39 29 80 87 124h-36v466h73z" />
    <glyph glyph-name="Kcommaaccent.small" unicode="&#xe010;" horiz-adv-x="463" 
d="M85 466h73v-466h-73v466zM376 466h93l-225 -204l235 -262h-100l-215 250zM214 -261l-17 18c29 21 40 31 51 45c17 21 28 45 28 61c0 12 -7 20 -22 24c-24 7 -34 17 -34 36c0 20 16 35 39 35c37 0 66 -33 66 -77c0 -45 -27 -88 -81 -129c-16 -12 -23 -16 -26 -16
c-1 0 -2 1 -4 3z" />
    <glyph glyph-name="Lacute.small" unicode="&#xe011;" horiz-adv-x="371" 
d="M85 466h73v-413h232v-53h-305v466zM205 688h11l57 -21v-12l-165 -134l-27 7z" />
    <glyph glyph-name="Lcommaaccent.small" unicode="&#xe013;" horiz-adv-x="371" 
d="M85 466h73v-413h232v-53h-305v466zM168 -261l-17 18c29 21 40 31 51 45c17 21 28 45 28 61c0 12 -7 20 -22 24c-24 7 -34 17 -34 36c0 20 16 35 39 35c37 0 66 -33 66 -77c0 -45 -27 -88 -81 -129c-16 -12 -23 -16 -26 -16c-1 0 -2 1 -4 3z" />
    <glyph glyph-name="Lcaron.small" unicode="&#xe012;" horiz-adv-x="371" 
d="M85 466h73v-413h232v-53h-305v466zM240 256l-17 18c29 21 39 30 51 46c17 20 28 44 28 60c0 13 -7 21 -22 25c-24 7 -34 17 -34 36c0 21 16 35 39 35c37 0 66 -34 66 -77c0 -45 -27 -89 -81 -130c-14 -10 -23 -16 -26 -16c-1 0 -1 0 -4 3z" />
    <glyph glyph-name="Nacute.small" unicode="&#xe014;" horiz-adv-x="579" 
d="M86 466h55l302 -347l-9 347h64l-5 -462l-35 -12l-323 370l11 -362h-66zM373 688h11l57 -21v-12l-165 -134l-27 7z" />
    <glyph glyph-name="Ncommaaccent.small" unicode="&#xe016;" horiz-adv-x="579" 
d="M86 466h55l302 -347l-9 347h64l-5 -462l-35 -12l-323 370l11 -362h-66zM234 -261l-17 18c29 21 40 31 51 45c17 21 28 45 28 61c0 12 -7 20 -22 24c-24 7 -34 17 -34 36c0 20 16 35 39 35c37 0 66 -33 66 -77c0 -45 -27 -88 -81 -129c-16 -12 -23 -16 -26 -16
c-1 0 -2 1 -4 3z" />
    <glyph glyph-name="Ncaron.small" unicode="&#xe015;" horiz-adv-x="579" 
d="M86 466h55l302 -347l-9 347h64l-5 -462l-35 -12l-323 370l11 -362h-66zM306 529h-33l-121 156l22 17l116 -102l115 102l22 -17z" />
    <glyph glyph-name="Omacron.small" unicode="&#xe018;" horiz-adv-x="607" 
d="M306 476c142 0 249 -104 249 -243c0 -140 -107 -243 -252 -243c-144 0 -251 103 -251 242c0 142 106 244 254 244zM302 427c-100 0 -167 -74 -167 -184c0 -122 69 -204 171 -204s166 73 166 189c0 73 -24 132 -68 165c-29 22 -66 34 -102 34zM174 637h260v-53h-260v53z
" />
    <glyph glyph-name="Ohungarumlaut.small" unicode="&#xe017;" horiz-adv-x="607" 
d="M306 476c142 0 249 -104 249 -243c0 -140 -107 -243 -252 -243c-144 0 -251 103 -251 242c0 142 106 244 254 244zM302 427c-100 0 -167 -74 -167 -184c0 -122 69 -204 171 -204s166 73 166 189c0 73 -24 132 -68 165c-29 22 -66 34 -102 34zM314 682h10l53 -14v-10
l-137 -134l-24 4zM441 682h10l53 -14v-10l-137 -134l-24 4z" />
    <glyph glyph-name="Racute.small" unicode="&#xe019;" horiz-adv-x="481" 
d="M85 0v466c76 2 111 3 139 3c71 0 104 -6 134 -24c33 -20 53 -61 53 -106c0 -59 -29 -100 -90 -131c83 -143 111 -174 160 -180l3 -5l-7 -23c-1 -5 -6 -7 -17 -7c-43 0 -78 13 -107 40c-28 26 -43 49 -103 155c-20 -2 -31 -3 -49 -3c-13 0 -23 0 -43 2v-187h-73zM158 423
v-190c30 -1 38 -1 54 -1c43 0 69 7 89 24c20 16 32 45 32 76c0 63 -38 92 -119 92c-14 0 -25 0 -56 -1zM305 688h11l57 -21v-12l-165 -134l-27 7z" />
    <glyph glyph-name="Rcommaaccent.small" unicode="&#xe01b;" horiz-adv-x="481" 
d="M85 0v466c76 2 111 3 139 3c71 0 104 -6 134 -24c33 -20 53 -61 53 -106c0 -59 -29 -100 -90 -131c83 -143 111 -174 160 -180l3 -5l-7 -23c-1 -5 -6 -7 -17 -7c-43 0 -78 13 -107 40c-28 26 -43 49 -103 155c-20 -2 -31 -3 -49 -3c-13 0 -23 0 -43 2v-187h-73zM158 423
v-190c30 -1 38 -1 54 -1c43 0 69 7 89 24c20 16 32 45 32 76c0 63 -38 92 -119 92c-14 0 -25 0 -56 -1zM211 -261l-17 18c29 21 40 31 51 45c17 21 28 45 28 61c0 12 -7 20 -22 24c-24 7 -34 17 -34 36c0 20 16 35 39 35c37 0 66 -33 66 -77c0 -45 -27 -88 -81 -129
c-16 -12 -23 -16 -26 -16c-1 0 -2 1 -4 3z" />
    <glyph glyph-name="Rcaron.small" unicode="&#xe01a;" horiz-adv-x="481" 
d="M85 0v466c76 2 111 3 139 3c71 0 104 -6 134 -24c33 -20 53 -61 53 -106c0 -59 -29 -100 -90 -131c83 -143 111 -174 160 -180l3 -5l-7 -23c-1 -5 -6 -7 -17 -7c-43 0 -78 13 -107 40c-28 26 -43 49 -103 155c-20 -2 -31 -3 -49 -3c-13 0 -23 0 -43 2v-187h-73zM158 423
v-190c30 -1 38 -1 54 -1c43 0 69 7 89 24c20 16 32 45 32 76c0 63 -38 92 -119 92c-14 0 -25 0 -56 -1zM238 529h-33l-121 156l22 17l116 -102l115 102l22 -17z" />
    <glyph glyph-name="Sacute.small" unicode="&#xe01c;" horiz-adv-x="408" 
d="M343 444l5 -43l1 -6c0 -3 -1 -5 -6 -7l-6 -2c-2 -1 -3 -1 -4 -1s-2 1 -5 3c-27 23 -69 38 -109 38c-56 0 -92 -28 -92 -72c0 -18 8 -36 21 -47c15 -12 22 -16 80 -38c108 -42 140 -74 140 -141c0 -82 -73 -138 -179 -138c-32 0 -92 10 -127 20c-14 5 -14 5 -16 21l-5 43
v4c0 4 1 6 5 7l7 3h4c1 0 1 0 18 -11c34 -23 84 -38 124 -38c56 0 96 33 96 78c0 35 -24 56 -94 84c-78 32 -82 34 -107 54c-25 21 -38 51 -38 87c0 81 67 134 169 134c36 0 81 -7 106 -16c8 -4 10 -6 12 -16zM300 688h11l57 -21v-12l-165 -134l-27 7z" />
    <glyph glyph-name="Scedilla.small" unicode="&#xe01d;" horiz-adv-x="408" 
d="M228 -7l-36 -57v-10c3 -2 8 -5 8 -6c37 -25 45 -35 45 -56c0 -45 -55 -95 -105 -95c-26 0 -58 17 -58 30c0 3 0 4 4 9l17 20h13c15 -17 24 -22 41 -22c23 0 41 15 41 34c0 15 -17 29 -61 52v22l54 77c-32 -1 -63 4 -117 17c-15 3 -23 6 -25 9c-2 2 -2 5 -3 14l-5 43
c0 8 1 10 5 11l6 3l4 1c2 0 4 -1 6 -2c42 -30 92 -47 137 -47c56 0 96 33 96 78c0 34 -24 56 -94 84c-79 32 -83 34 -108 54c-25 21 -38 51 -38 86c0 81 67 134 170 134c36 0 80 -7 106 -16c8 -4 10 -6 11 -16l6 -43v-6c0 -4 -1 -5 -6 -7l-6 -2c-1 -1 -2 -1 -3 -1s-3 1 -5 3
c-27 23 -69 38 -110 38c-56 0 -92 -28 -92 -72c0 -18 8 -36 21 -47c15 -12 22 -15 80 -38c109 -42 141 -74 141 -141c0 -71 -51 -121 -140 -135z" />
    <glyph glyph-name="Tcommaaccent.small" unicode="&#xe020;" horiz-adv-x="387" 
d="M-24 466h435v-50h-181v-416h-73v416h-181v50zM138 -261l-17 18c29 21 40 31 51 45c17 21 28 45 28 61c0 12 -7 20 -22 24c-24 7 -34 17 -34 36c0 20 16 35 39 35c37 0 66 -33 66 -77c0 -45 -27 -88 -81 -129c-16 -12 -23 -16 -26 -16c-1 0 -2 1 -4 3z" />
    <glyph glyph-name="Tcaron.small" unicode="&#xe01f;" horiz-adv-x="387" 
d="M-24 466h435v-50h-181v-416h-73v416h-181v50zM210 529h-33l-121 156l23 17l115 -102l115 102l22 -17z" />
    <glyph glyph-name="Umacron.small" unicode="&#xe022;" horiz-adv-x="547" 
d="M78 466h73v-248c0 -92 2 -105 18 -127c21 -29 62 -45 112 -45c57 0 99 20 117 56c10 21 14 52 14 116v248h63l-6 -248c-1 -86 -11 -127 -38 -161c-34 -44 -90 -67 -160 -67c-74 0 -136 26 -166 71c-22 32 -27 63 -27 157v248zM143 637h260v-53h-260v53z" />
    <glyph glyph-name="Uring.small" unicode="&#xe024;" horiz-adv-x="547" 
d="M78 466h73v-248c0 -92 2 -105 18 -127c21 -29 62 -45 112 -45c57 0 99 20 117 56c10 21 14 52 14 116v248h63l-6 -248c-1 -86 -11 -127 -38 -161c-34 -44 -90 -67 -160 -67c-74 0 -136 26 -166 71c-22 32 -27 63 -27 157v248zM273 713c56 0 101 -42 101 -94
s-44 -92 -103 -92c-55 0 -98 41 -98 92c0 52 45 94 100 94zM275 673c-30 0 -52 -23 -52 -54c0 -32 22 -55 51 -55c30 0 50 21 50 53c0 33 -21 56 -49 56z" />
    <glyph glyph-name="Uhungarumlaut.small" unicode="&#xe021;" horiz-adv-x="547" 
d="M78 466h73v-248c0 -92 2 -105 18 -127c21 -29 62 -45 112 -45c57 0 99 20 117 56c10 21 14 52 14 116v248h63l-6 -248c-1 -86 -11 -127 -38 -161c-34 -44 -90 -67 -160 -67c-74 0 -136 26 -166 71c-22 32 -27 63 -27 157v248zM283 682h10l53 -14v-10l-137 -134l-24 4z
M410 682h10l53 -14v-10l-137 -134l-24 4z" />
    <glyph glyph-name="Uogonek.small" unicode="&#xe023;" horiz-adv-x="547" 
d="M78 466h73v-248c0 -92 2 -105 18 -127c21 -29 62 -45 112 -45c57 0 99 20 117 56c10 21 14 52 14 116v248h63l-6 -248c-2 -110 -18 -153 -72 -193c-42 -30 -76 -83 -76 -117c0 -28 18 -45 48 -45c12 0 27 3 42 7h7l-1 -5c-3 -12 -5 -17 -13 -22c-14 -9 -42 -16 -62 -16
c-47 0 -78 27 -78 67c0 34 22 65 76 105c-26 -6 -45 -9 -70 -9c-73 0 -136 27 -165 71c-22 32 -27 63 -27 157v248z" />
    <glyph glyph-name="Zacute.small" unicode="&#xe025;" horiz-adv-x="408" 
d="M41 466h360v-30l-297 -383h297l-14 -53h-381v33l299 383h-264v50zM303 688h11l57 -21v-12l-165 -134l-27 7z" />
    <glyph glyph-name="Zdotaccent.small" unicode="&#xe026;" horiz-adv-x="408" 
d="M41 466h360v-30l-297 -383h297l-14 -53h-381v33l299 383h-264v50zM219 642c24 0 43 -19 43 -43s-19 -43 -44 -43c-22 0 -42 20 -42 43c0 24 19 43 43 43z" />
    <glyph glyph-name="Scommaaccent.small" unicode="&#xe01e;" horiz-adv-x="408" 
d="M343 444l5 -43l1 -6c0 -3 -1 -5 -6 -7l-6 -2c-2 -1 -3 -1 -4 -1s-2 1 -5 3c-27 23 -69 38 -109 38c-56 0 -92 -28 -92 -72c0 -18 8 -36 21 -47c15 -12 22 -16 80 -38c108 -42 140 -74 140 -141c0 -82 -73 -138 -179 -138c-32 0 -92 10 -127 20c-14 5 -14 5 -16 21l-5 43
v4c0 4 1 6 5 7l7 3h4c1 0 1 0 18 -11c34 -23 84 -38 124 -38c56 0 96 33 96 78c0 35 -24 56 -94 84c-78 32 -82 34 -107 54c-25 21 -38 51 -38 87c0 81 67 134 169 134c36 0 81 -7 106 -16c8 -4 10 -6 12 -16zM148 -261l-17 18c29 21 40 31 51 45c17 21 28 45 28 61
c0 12 -7 20 -22 24c-24 7 -34 17 -34 36c0 20 16 35 39 35c37 0 66 -33 66 -77c0 -45 -27 -88 -81 -129c-16 -12 -23 -16 -26 -16c-1 0 -2 1 -4 3z" />
    <glyph glyph-name="Gbreve.small" unicode="&#xe00b;" horiz-adv-x="553" 
d="M418 234h73v-216c-48 -18 -110 -28 -170 -28c-168 0 -269 89 -269 236c0 151 111 250 281 250c46 0 98 -7 131 -18c10 -3 12 -6 13 -19l1 -34c0 -6 -1 -10 -4 -12l-5 -3c-1 -1 -2 -1 -3 -1c-2 0 -2 0 -18 8c-41 19 -95 32 -135 32c-109 0 -178 -72 -178 -187
c0 -62 22 -119 62 -157c35 -33 78 -48 142 -48c31 0 50 2 79 10v187zM166 680h33c11 -52 47 -82 97 -82s85 30 96 82h33v-14c-1 -69 -58 -124 -129 -124c-73 0 -130 56 -130 128v10z" />
    <glyph glyph-name="Germandbls.small" unicode="&#xe00d;" horiz-adv-x="815" 
d="M343 444l5 -43l1 -6c0 -3 -1 -5 -6 -7l-6 -2c-2 -1 -3 -1 -4 -1s-2 1 -5 3c-27 23 -69 38 -109 38c-56 0 -92 -28 -92 -72c0 -18 8 -36 21 -47c15 -12 22 -16 80 -38c108 -42 140 -74 140 -141c0 -82 -73 -138 -179 -138c-32 0 -92 10 -127 20c-14 5 -14 5 -16 21l-5 43
v4c0 4 1 6 5 7l7 3h4c1 0 1 0 18 -11c34 -23 84 -38 124 -38c56 0 96 33 96 78c0 35 -24 56 -94 84c-78 32 -82 34 -107 54c-25 21 -38 51 -38 87c0 81 67 134 169 134c36 0 81 -7 106 -16c8 -4 10 -6 12 -16zM750 444l6 -43v-6c0 -4 -1 -5 -6 -7l-6 -2c-1 -1 -2 -1 -3 -1
s-3 1 -5 3c-27 23 -70 38 -110 38c-56 0 -92 -28 -92 -72c0 -18 8 -36 21 -47c15 -12 22 -16 80 -38c108 -42 140 -74 140 -141c0 -82 -72 -138 -178 -138c-33 0 -92 10 -127 20c-14 5 -15 5 -16 21l-5 43l-1 4c0 4 1 6 6 7l6 3h4c2 0 2 0 19 -11c34 -23 83 -38 123 -38
c56 0 96 33 96 78c0 35 -24 56 -94 84c-78 32 -83 34 -107 54c-25 21 -38 52 -38 87c0 81 67 134 170 134c35 0 80 -7 106 -16c8 -4 10 -6 11 -16z" />
    </font>
</defs>
</svg>
