<?xml version="1.0" standalone="no"?>
<!DOCTYPE svg PUBLIC "-//W3C//DTD SVG 1.1//EN" "http://www.w3.org/Graphics/SVG/1.1/DTD/svg11.dtd" >
<svg xmlns="http://www.w3.org/2000/svg" xmlns:xlink="http://www.w3.org/1999/xlink" version="1.1">
<metadata>
Created by FontForge 20201107 at Sat Feb 17 00:23:20 2001
 By Unknown
(URW)++,Copyright 2000 by (URW)++ Design &#38; Development
</metadata>
<defs>
<font id="LegacySansItcTOT-Bold" horiz-adv-x="500" >
  <font-face 
    font-family="Legacy Sans Itc T OT"
    font-weight="700"
    font-stretch="normal"
    units-per-em="1000"
    panose-1="2 0 0 0 0 0 0 0 0 0"
    ascent="800"
    descent="-200"
    x-height="422"
    cap-height="634"
    bbox="-206 -288 1160 908"
    underline-thickness="111"
    underline-position="-99"
    stemh="74"
    stemv="128"
    unicode-range="U+0020-FB02"
  />
<missing-glyph horiz-adv-x="193" 
 />
    <glyph glyph-name="fi" unicode="fi" horiz-adv-x="537" 
d="M197 422h120v-79h-120v-343h-127v343h-68v55l68 20v18c0 86 27 149 85 198c45 38 104 58 172 58c52 0 101 -18 130 -47c8 -9 10 -13 10 -25c0 -6 -3 -13 -7 -17l-51 -47h-20c-33 36 -58 48 -98 48c-30 0 -57 -9 -72 -26c-18 -18 -22 -36 -22 -97v-59zM354 422h127v-422
h-127v422z" />
    <glyph glyph-name="fl" unicode="fl" horiz-adv-x="537" 
d="M358 690h123v-690h-127v575c-27 20 -53 29 -83 29c-20 0 -35 -4 -47 -13c-23 -17 -27 -35 -27 -110v-59h120v-79h-120v-343h-127v343h-68v55l68 20v18c0 98 17 145 72 194c43 38 99 61 148 61c24 0 42 -4 68 -17v16z" />
    <glyph glyph-name=".notdef" horiz-adv-x="193" 
 />
    <glyph glyph-name="space" unicode=" " horiz-adv-x="193" 
 />
    <glyph glyph-name="space" unicode="&#xa0;" horiz-adv-x="193" 
 />
    <glyph glyph-name="exclam" unicode="!" horiz-adv-x="370" 
d="M112 643h146v-128l-48 -341h-50l-48 341v128zM185 146c44 0 79 -35 79 -80c0 -43 -36 -78 -80 -78c-42 0 -78 36 -78 78c0 45 35 80 79 80z" />
    <glyph glyph-name="quotedbl" unicode="&#x22;" horiz-adv-x="556" 
d="M167 324l-24 221v89h104v-89l-24 -221h-56zM334 324l-25 221v89h104v-89l-24 -221h-55z" />
    <glyph glyph-name="numbersign" unicode="#" horiz-adv-x="593" 
d="M271 458h123l48 176h59l-48 -176h139l-20 -75h-139l-32 -118h138l-20 -75h-138l-52 -190h-59l52 190h-123l-52 -190h-59l52 190h-139l20 75h139l32 118h-138l20 75h138l48 176h59zM251 383l-32 -118h123l32 118h-123z" />
    <glyph glyph-name="dollar" unicode="$" 
d="M248 692h65v-69c37 0 95 -8 137 -18c16 -4 19 -7 19 -19l1 -65v-2c0 -6 -1 -9 -7 -11l-18 -6l-7 -1c-2 0 -6 2 -15 8c-39 24 -75 37 -110 37v-183c138 -60 185 -107 185 -185c0 -94 -67 -158 -185 -176v-101h-65v97h-8c-43 0 -97 8 -154 23c-24 6 -26 8 -26 20l-3 68v8
c0 6 1 6 8 9l19 7c5 1 7 2 9 2c3 0 7 -2 18 -10c44 -29 98 -48 137 -48v196c-79 37 -102 50 -125 69c-39 32 -58 68 -58 112c0 47 22 94 58 122c29 23 68 37 125 47v69zM250 391v159c-43 -4 -67 -28 -67 -67c0 -38 20 -65 67 -92zM311 245v-167c43 10 67 38 67 81
c0 38 -17 60 -67 86z" />
    <glyph glyph-name="percent" unicode="%" horiz-adv-x="796" 
d="M201 646c101 0 164 -64 164 -166c0 -109 -66 -175 -175 -175c-102 0 -166 63 -166 163c0 111 67 178 177 178zM196 584c-42 0 -68 -43 -68 -113c0 -65 24 -104 64 -104c42 0 69 43 69 109c0 68 -24 108 -65 108zM574 634h80l-436 -646h-79zM609 329
c100 0 163 -64 163 -166c0 -109 -66 -175 -175 -175c-103 0 -166 62 -166 163c0 111 67 178 178 178zM604 267c-43 0 -69 -43 -69 -113c0 -65 24 -104 64 -104c42 0 69 43 69 109c0 68 -24 108 -64 108z" />
    <glyph glyph-name="ampersand" unicode="&#x26;" horiz-adv-x="648" 
d="M516 366h101c-13 -71 -50 -146 -104 -210c50 -69 85 -94 140 -96h6l-10 -60c-22 -4 -36 -5 -61 -5c-70 0 -104 16 -159 75c-60 -53 -130 -80 -203 -80c-51 0 -103 15 -136 39c-37 28 -60 79 -60 133c0 75 45 133 134 171c-49 34 -70 72 -70 124c0 97 77 160 196 160
c102 0 163 -47 163 -128c0 -65 -34 -108 -112 -141c45 -24 86 -65 123 -120c23 33 44 88 52 138zM282 385c2 1 2 1 5 2c34 14 52 44 52 90c0 42 -23 67 -62 67s-62 -25 -62 -66c0 -40 17 -63 67 -93zM231 291c-46 -24 -69 -59 -69 -104c0 -57 40 -93 102 -93
c42 0 81 15 116 43c-47 79 -91 124 -149 154z" />
    <glyph glyph-name="quoteright" unicode="&#x2019;" horiz-adv-x="278" 
d="M42 395v4c55 37 93 83 93 113c0 10 -7 18 -22 26c-35 16 -43 26 -43 55c0 38 31 65 74 65c55 0 93 -42 93 -105c0 -54 -27 -107 -77 -153c-22 -20 -68 -51 -75 -51c-2 0 -4 2 -6 4z" />
    <glyph glyph-name="parenleft" unicode="(" horiz-adv-x="389" 
d="M263 692l65 -64c-99 -122 -146 -253 -146 -411c0 -157 47 -289 146 -411l-65 -63c-130 123 -202 293 -202 474s73 353 202 475z" />
    <glyph glyph-name="parenright" unicode=")" horiz-adv-x="389" 
d="M126 -257l-65 63c100 122 147 254 147 411c0 158 -47 289 -147 411l65 64c130 -124 202 -293 202 -475c0 -181 -72 -350 -202 -474z" />
    <glyph glyph-name="asterisk" unicode="*" horiz-adv-x="555" 
d="M97 509h47l103 -23l-70 79l-24 41l67 39l24 -40l34 -100l33 100l24 40l67 -39l-24 -41l-70 -79l103 23h47v-77h-47l-103 22l70 -78l24 -41l-67 -39l-24 40l-33 100l-34 -100l-24 -40l-67 39l24 41l70 78l-103 -22h-47v77z" />
    <glyph glyph-name="plus" unicode="+" horiz-adv-x="556" 
d="M237 358v163c0 18 1 19 21 19h40c21 0 21 0 21 -25v-157h162c18 0 19 -1 19 -21v-40c0 -20 -1 -21 -25 -21h-156v-162c0 -17 -2 -19 -21 -19h-40c-19 0 -21 2 -21 19v162h-163c-17 0 -19 2 -19 21v40c0 19 2 21 19 21h163z" />
    <glyph glyph-name="comma" unicode="," horiz-adv-x="278" 
d="M32 -129v4c56 38 93 83 93 112c0 11 -7 19 -22 26c-35 16 -43 27 -43 58c0 39 32 68 75 68c55 0 94 -45 94 -109c0 -56 -28 -108 -84 -158c-24 -21 -64 -48 -70 -48c-2 0 -2 0 -8 7z" />
    <glyph glyph-name="hyphen" unicode="-" horiz-adv-x="333" 
d="M58 290h240l-23 -102h-240z" />
    <glyph glyph-name="hyphen" unicode="&#xad;" horiz-adv-x="333" 
d="M58 290h240l-23 -102h-240z" />
    <glyph glyph-name="period" unicode="." horiz-adv-x="278" 
d="M139 146c44 0 79 -35 79 -80c0 -43 -36 -78 -80 -78c-42 0 -78 36 -78 78c0 45 35 80 79 80z" />
    <glyph glyph-name="slash" unicode="/" horiz-adv-x="445" 
d="M305 634h82l-303 -814h-81z" />
    <glyph glyph-name="zero" unicode="0" horiz-adv-x="556" 
d="M289 646c72 0 131 -30 171 -87c37 -52 53 -123 53 -229c0 -131 -24 -219 -75 -274c-41 -45 -97 -68 -166 -68c-150 0 -228 107 -228 313c0 230 81 345 245 345zM282 573c-42 0 -72 -27 -86 -77c-12 -46 -17 -105 -17 -212c0 -94 6 -141 23 -174c17 -32 42 -49 73 -49
c73 0 103 77 103 260c0 114 -7 170 -25 205c-16 31 -40 47 -71 47z" />
    <glyph glyph-name="one" unicode="1" horiz-adv-x="555" 
d="M318 641h47v-641h-129v509l-136 -62h-22v75z" />
    <glyph glyph-name="two" unicode="2" horiz-adv-x="556" 
d="M505 108l-23 -108h-431v54c103 101 170 172 223 238c51 64 71 109 71 159c0 69 -31 104 -92 104c-71 0 -119 -39 -137 -110c-1 -5 -2 -6 -9 -6h-12c-11 0 -11 1 -14 11l-11 47c-3 11 -3 11 -3 14c0 11 18 39 38 60c44 47 113 75 183 75c117 0 188 -65 188 -172
c0 -63 -24 -115 -82 -179c-48 -52 -64 -67 -198 -187h309z" />
    <glyph glyph-name="three" unicode="3" horiz-adv-x="556" 
d="M164 288l-16 55c87 38 111 50 135 69c21 18 33 45 33 78c0 49 -26 75 -75 75c-59 0 -105 -26 -124 -72c-2 -4 -3 -5 -10 -5h-11c-10 0 -10 0 -12 9l-11 48c-1 2 -2 9 -2 11c0 6 7 14 30 33c49 40 102 57 175 57c104 0 168 -50 168 -130c0 -57 -31 -97 -107 -141
c90 -8 147 -71 147 -163c0 -64 -31 -130 -80 -169c-44 -35 -109 -55 -182 -55c-78 0 -131 20 -167 61c-15 18 -17 24 -17 46c0 17 1 20 7 24l39 22c10 6 14 7 23 7h16c10 0 10 0 14 -15c14 -45 54 -72 105 -72c65 0 108 49 108 126c0 78 -36 117 -107 117
c-25 0 -44 -4 -79 -16z" />
    <glyph glyph-name="four" unicode="4" horiz-adv-x="555" 
d="M535 243v-94h-103v-149h-119v149h-292v73l326 412h85v-391h103zM313 243v245l-192 -245h192z" />
    <glyph glyph-name="five" unicode="5" horiz-adv-x="555" 
d="M174 634h317l-19 -108h-248l-25 -95c183 -22 287 -105 287 -229c0 -121 -105 -214 -241 -214c-75 0 -131 20 -166 61c-14 16 -14 16 -14 46c0 19 1 21 11 28l32 22c8 6 11 7 19 7h20c8 0 9 -1 12 -11c13 -48 56 -80 106 -80c60 0 104 47 104 111c0 49 -24 85 -75 109
c-41 20 -67 26 -167 41l-26 32z" />
    <glyph glyph-name="six" unicode="6" horiz-adv-x="555" 
d="M490 590l-11 -17c-7 1 -15 1 -17 1c-66 0 -139 -27 -189 -71c-45 -38 -69 -81 -82 -141c49 30 95 44 145 44c110 0 182 -76 182 -192c0 -138 -95 -226 -243 -226c-143 0 -226 97 -226 263c0 231 167 396 400 396c10 0 13 -1 17 -9zM181 276c-1 -15 -1 -16 -1 -23
c0 -56 13 -117 33 -148c18 -29 43 -44 76 -44c57 0 94 53 94 133c0 77 -38 124 -99 124c-33 0 -69 -14 -103 -42z" />
    <glyph glyph-name="seven" unicode="7" horiz-adv-x="556" 
d="M59 634h438v-60l-311 -600l-116 23l301 521h-312v116z" />
    <glyph glyph-name="eight" unicode="8" horiz-adv-x="555" 
d="M366 349c50 -24 75 -39 95 -57c33 -30 52 -73 52 -121c0 -111 -97 -183 -245 -183c-82 0 -139 18 -180 57c-30 28 -45 65 -45 108c0 74 43 125 138 163c-77 38 -110 84 -110 151c0 46 19 92 52 124c39 37 95 55 174 55c65 0 103 -10 138 -37c33 -26 51 -65 51 -110
c0 -67 -37 -112 -120 -150zM306 377c42 24 59 54 59 106c0 62 -29 93 -85 93s-88 -32 -88 -88c0 -48 25 -73 114 -111zM238 286c-47 -20 -69 -55 -69 -112c0 -73 39 -113 109 -113c67 0 109 37 109 97c0 53 -19 69 -149 128z" />
    <glyph glyph-name="nine" unicode="9" horiz-adv-x="556" 
d="M67 42l13 18c159 0 261 78 285 219c-49 -30 -93 -43 -144 -43c-109 0 -183 77 -183 190c0 131 99 221 244 221c148 0 225 -90 225 -260c0 -177 -85 -310 -237 -370c-47 -18 -110 -30 -161 -30c-14 0 -16 1 -19 8zM373 365c1 3 1 3 1 7c1 5 2 16 2 23
c0 114 -39 179 -105 179c-61 0 -98 -47 -98 -123c0 -77 40 -128 100 -128c33 0 66 13 100 42z" />
    <glyph glyph-name="colon" unicode=":" horiz-adv-x="278" 
d="M139 432c44 0 79 -36 79 -80c0 -43 -36 -78 -80 -78c-42 0 -78 36 -78 78c0 45 35 80 79 80zM139 146c44 0 79 -35 79 -80c0 -43 -36 -78 -80 -78c-42 0 -78 36 -78 78c0 45 35 80 79 80z" />
    <glyph glyph-name="semicolon" unicode=";" horiz-adv-x="278" 
d="M144 432c44 0 79 -36 79 -80c0 -43 -36 -78 -80 -78c-42 0 -78 36 -78 78c0 44 35 80 79 80zM32 -129v4c56 38 93 83 93 112c0 11 -7 19 -22 26c-35 16 -43 27 -43 58c0 39 32 68 75 68c55 0 94 -45 94 -109c0 -57 -29 -110 -87 -160c-23 -20 -61 -46 -67 -46
c-2 0 -2 0 -8 7z" />
    <glyph glyph-name="less" unicode="&#x3c;" horiz-adv-x="555" 
d="M484 581v-97l-316 -161l316 -161v-96l-412 208v99z" />
    <glyph glyph-name="equal" unicode="=" horiz-adv-x="556" 
d="M74 418h407c18 0 19 -1 19 -21v-37c0 -20 -1 -21 -25 -21h-401c-18 0 -19 1 -19 21v37c0 19 2 21 19 21zM74 295h407c18 0 19 -1 19 -21v-37c0 -20 -1 -21 -25 -21h-401c-17 0 -19 2 -19 21v36c0 18 3 22 19 22z" />
    <glyph glyph-name="greater" unicode="&#x3e;" horiz-adv-x="555" 
d="M72 65v97l316 161l-316 161v96l412 -208v-99z" />
    <glyph glyph-name="question" unicode="?" horiz-adv-x="407" 
d="M61 516l-21 58c-2 6 -3 13 -3 23c0 12 1 15 6 19c21 18 69 30 114 30c67 0 123 -26 164 -75c30 -36 49 -85 49 -128c0 -44 -20 -85 -57 -115c-12 -9 -70 -45 -105 -64c-39 -22 -41 -26 -42 -86h-71c-1 14 -2 27 -2 31c-2 32 -3 57 -3 75c0 40 12 53 95 105
c66 42 81 59 81 94c0 38 -28 62 -74 62c-34 0 -63 -9 -97 -29h-34zM132 146c44 0 79 -35 79 -79s-36 -79 -80 -79c-42 0 -78 36 -78 78c0 45 35 80 79 80z" />
    <glyph glyph-name="at" unicode="@" horiz-adv-x="815" 
d="M585 494l-39 -260c-1 -10 -2 -21 -2 -25c0 -9 6 -15 15 -15c13 0 36 13 55 30c35 33 61 101 61 162c0 118 -89 198 -221 198c-171 0 -313 -137 -313 -302c0 -148 103 -238 272 -238c62 0 94 5 156 26c4 1 7 2 10 2c8 0 17 -18 17 -34c0 -6 -3 -8 -23 -16
c-55 -22 -113 -33 -181 -33c-217 0 -356 114 -356 290c0 203 189 366 424 366c81 0 155 -19 209 -55c65 -42 109 -122 109 -199c0 -103 -67 -195 -169 -232c-34 -12 -78 -20 -109 -20c-41 0 -60 16 -60 49c0 18 3 42 10 71c-55 -76 -114 -120 -161 -120
c-49 0 -82 41 -82 103c0 127 122 238 278 253l1 4c1 6 4 8 14 8h77c6 0 9 -2 9 -5l-1 -4v-4zM458 337l7 48c3 25 3 25 3 30c0 6 -5 8 -17 8c-67 0 -133 -80 -133 -163c0 -18 5 -30 14 -30c23 0 76 45 126 107z" />
    <glyph glyph-name="A" unicode="A" horiz-adv-x="667" 
d="M303 634h103l261 -634h-153l-70 189h-246l-76 -189h-122zM415 264l-89 240l-97 -240h186z" />
    <glyph glyph-name="B" unicode="B" horiz-adv-x="630" 
d="M78 0v634c89 2 109 2 145 3c44 1 77 2 92 2c78 0 126 -8 163 -27c46 -23 72 -64 72 -112c0 -59 -34 -101 -107 -133c94 -21 148 -83 148 -172c0 -120 -103 -195 -266 -195h-247zM215 378h47c64 0 89 4 110 20s32 42 32 77c0 67 -32 91 -119 91c-3 0 -15 0 -31 -1
c-11 0 -17 0 -39 -1v-186zM215 77l83 -1c101 0 147 35 147 112c0 45 -15 77 -47 96c-24 15 -64 21 -135 21h-48v-228z" />
    <glyph glyph-name="C" unicode="C" horiz-adv-x="648" 
d="M627 600l-7 -62c-1 -6 -1 -7 -8 -10l-10 -6c-2 -1 -5 -2 -7 -2s-2 0 -21 9c-48 22 -124 38 -183 38c-136 0 -212 -84 -212 -236c0 -160 90 -265 226 -265c66 0 130 19 185 53c2 1 4 2 5 2c2 0 2 0 7 -3l10 -6c7 -3 7 -4 7 -7c0 -1 0 -1 -2 -8l-9 -64
c-2 -11 -4 -13 -16 -17c-46 -15 -138 -28 -201 -28c-86 0 -160 18 -218 54c-88 55 -140 153 -140 265c0 206 154 339 393 339c64 0 160 -13 191 -26c8 -4 11 -10 10 -20z" />
    <glyph glyph-name="D" unicode="D" horiz-adv-x="759" 
d="M78 0v634c165 5 255 7 269 7c118 0 194 -16 255 -53c82 -49 124 -134 124 -249c0 -134 -58 -239 -160 -293c-64 -32 -148 -46 -284 -46h-204zM217 78h108c85 0 144 14 180 42c51 40 75 105 75 203c0 99 -22 158 -74 196c-43 31 -89 43 -171 43l-118 -1v-483z" />
    <glyph glyph-name="E" unicode="E" horiz-adv-x="574" 
d="M78 634h461v-79h-322v-182h288v-79h-288v-210h333v-84h-472v634z" />
    <glyph glyph-name="F" unicode="F" horiz-adv-x="537" 
d="M78 634h472v-84h-333v-185h280v-84h-280v-281h-139v634z" />
    <glyph glyph-name="G" unicode="G" horiz-adv-x="722" 
d="M521 315h139v-292c-93 -24 -179 -35 -261 -35c-98 0 -177 20 -237 61c-82 55 -129 149 -129 257c0 202 163 341 399 341c57 0 152 -14 183 -27c10 -4 11 -6 11 -20l4 -64v-4c0 -2 -2 -5 -6 -7l-18 -10c-3 -1 -5 -2 -6 -2c-3 0 -6 2 -20 11c-41 26 -108 44 -166 44
c-146 0 -235 -93 -235 -245c0 -163 88 -257 242 -257c31 0 58 4 100 14v235z" />
    <glyph glyph-name="H" unicode="H" horiz-adv-x="741" 
d="M217 378h306v256h139v-634h-139v297h-306v-297h-139v634h139v-256z" />
    <glyph glyph-name="I" unicode="I" horiz-adv-x="296" 
d="M78 634h139v-634h-139v634z" />
    <glyph glyph-name="J" unicode="J" horiz-adv-x="296" 
d="M79 634h139v-533c0 -109 -13 -152 -64 -205s-118 -84 -185 -84c-29 0 -72 10 -86 19c-5 4 -6 10 -6 29c0 22 1 25 9 33l36 37c6 7 8 8 14 8h11c6 0 6 0 21 -8c12 -6 29 -10 48 -10c30 0 47 10 56 31c6 15 7 31 7 92v591z" />
    <glyph glyph-name="K" unicode="K" horiz-adv-x="629" 
d="M78 634h139v-634h-139v634zM498 634h151l-280 -270l285 -364h-180l-249 338z" />
    <glyph glyph-name="L" unicode="L" 
d="M78 634h139v-550h294v-84h-433v634z" />
    <glyph glyph-name="M" unicode="M" horiz-adv-x="889" 
d="M93 634h125l220 -456l233 456h127l23 -634h-134l-15 447l-229 -433l-63 -10l-221 462l-7 -466h-102z" />
    <glyph glyph-name="N" unicode="N" horiz-adv-x="759" 
d="M80 634h100l406 -445l-8 445h100l-1 -627l-82 -21l-427 467l8 -453h-100z" />
    <glyph glyph-name="O" unicode="O" horiz-adv-x="796" 
d="M412 646c212 0 352 -129 352 -325c0 -199 -153 -334 -379 -334c-98 0 -183 28 -244 80c-68 58 -108 148 -108 245c0 103 42 189 122 250c76 58 156 84 257 84zM391 567c-127 0 -212 -97 -212 -243c0 -149 97 -258 229 -258c48 0 95 17 132 47c52 44 78 107 78 191
c0 92 -34 172 -94 217c-38 29 -88 46 -133 46z" />
    <glyph glyph-name="P" unicode="P" horiz-adv-x="592" 
d="M78 0v634c52 1 219 5 235 5c87 0 141 -11 183 -37c54 -33 85 -92 85 -161s-33 -127 -93 -165c-47 -29 -109 -42 -202 -42c-23 0 -33 0 -69 2v-236h-139zM217 559v-243c23 -2 35 -3 62 -3c61 0 91 7 117 27c25 20 39 52 39 93c0 56 -23 97 -64 114c-21 9 -50 13 -97 13
c-14 0 -51 0 -57 -1z" />
    <glyph glyph-name="Q" unicode="Q" horiz-adv-x="796" 
d="M732 -98l3 -59c-24 -5 -41 -7 -66 -7c-121 0 -225 51 -312 152c-69 5 -124 20 -172 48c-95 55 -152 160 -152 277c0 102 41 186 122 250c71 56 156 84 253 84c216 0 356 -128 356 -325c0 -156 -88 -270 -247 -317c66 -64 142 -101 215 -103zM391 568
c-127 0 -212 -97 -212 -243c0 -150 97 -259 229 -259c48 0 95 17 132 47c52 44 78 107 78 191c0 93 -34 173 -94 218c-38 29 -88 46 -133 46z" />
    <glyph glyph-name="R" unicode="R" horiz-adv-x="648" 
d="M78 0v634c38 1 73 2 105 2c78 3 103 3 130 3c105 0 151 -8 192 -32c56 -32 84 -81 84 -144c0 -83 -51 -141 -149 -170c45 -97 92 -168 136 -209c22 -20 53 -31 88 -31h4l3 -5l-10 -40c-3 -13 -30 -20 -78 -20c-74 0 -130 30 -181 99c-29 39 -56 88 -101 181
c-16 -1 -36 -2 -51 -2c-12 0 -17 0 -33 1v-267h-139zM217 562v-223c54 -2 65 -2 73 -2c105 0 153 37 153 118c0 47 -19 80 -58 96c-21 9 -45 12 -98 12c-17 0 -42 0 -70 -1z" />
    <glyph glyph-name="S" unicode="S" horiz-adv-x="519" 
d="M453 609l7 -59l1 -9c0 -3 -1 -4 -7 -7l-23 -12c-6 -3 -6 -3 -8 -3c-3 0 -4 0 -19 11c-33 21 -87 37 -130 37c-66 0 -108 -31 -108 -80c0 -23 10 -44 28 -57s40 -24 107 -54c93 -43 108 -51 137 -78c30 -28 48 -69 48 -112c0 -113 -109 -198 -253 -198
c-51 0 -139 12 -180 24c-13 4 -15 6 -16 18l-8 69c-1 5 -1 8 -1 9c0 3 2 6 6 8l24 13c2 1 6 3 7 3s4 -1 6 -3c46 -33 120 -58 175 -58c69 0 114 34 114 87c0 21 -8 40 -24 53c-17 14 -35 23 -100 51c-84 37 -120 57 -150 86c-28 27 -46 70 -46 113c0 111 103 185 255 185
c46 0 125 -11 148 -21c7 -3 8 -6 10 -16z" />
    <glyph glyph-name="T" unicode="T" horiz-adv-x="593" 
d="M-22 634h637v-84h-249v-550h-139v550h-249v84z" />
    <glyph glyph-name="U" unicode="U" horiz-adv-x="722" 
d="M79 634h139v-378c0 -61 1 -70 5 -88c15 -55 67 -85 149 -85c64 0 120 21 149 57c25 30 29 54 29 161v333h102l-8 -330c-4 -152 -21 -204 -85 -253c-55 -43 -126 -63 -222 -63c-93 0 -158 20 -203 63c-43 42 -55 83 -55 199v384z" />
    <glyph glyph-name="V" unicode="V" horiz-adv-x="630" 
d="M0 634h154l180 -487l200 487h124l-301 -634h-99z" />
    <glyph glyph-name="W" unicode="W" horiz-adv-x="981" 
d="M-9 634h150l159 -475l171 475h74l159 -475l173 475h123l-274 -634h-99l-144 414l-154 -414h-99z" />
    <glyph glyph-name="X" unicode="X" horiz-adv-x="611" 
d="M24 634h159l144 -224l157 224h136l-240 -297l241 -337h-169l-155 247l-171 -247h-136l255 321z" />
    <glyph glyph-name="Y" unicode="Y" horiz-adv-x="556" 
d="M-25 634h166l159 -270l155 270h134l-246 -354v-280h-139v276z" />
    <glyph glyph-name="Z" unicode="Z" horiz-adv-x="574" 
d="M31 634h536v-54l-377 -496h379l-15 -84h-546v56l377 494h-354v84z" />
    <glyph glyph-name="bracketleft" unicode="[" horiz-adv-x="389" 
d="M100 685h236v-75h-119v-785h119v-75h-236v935z" />
    <glyph glyph-name="backslash" unicode="\" horiz-adv-x="444" 
d="M138 634l303 -814h-82l-302 814h81z" />
    <glyph glyph-name="bracketright" unicode="]" horiz-adv-x="389" 
d="M288 -250h-236v75h119v785h-119v75h236v-935z" />
    <glyph glyph-name="asciicircum" unicode="^" horiz-adv-x="475" 
d="M133 318h-129l152 320h163l152 -320h-129l-105 221z" />
    <glyph glyph-name="underscore" unicode="_" horiz-adv-x="476" 
d="M0 -44h476v-111h-476v111z" />
    <glyph glyph-name="quoteleft" unicode="&#x2018;" horiz-adv-x="278" 
d="M237 612v-4c-56 -39 -93 -84 -93 -113c0 -11 7 -18 23 -26c34 -16 42 -27 42 -55c0 -38 -31 -65 -74 -65c-55 0 -93 43 -93 105c0 54 27 107 77 153c23 21 67 51 75 51c2 0 2 0 6 -5z" />
    <glyph glyph-name="a" unicode="a" 
d="M59 305l-3 60c1 12 1 13 8 17c44 30 125 51 193 51c62 0 108 -15 135 -45c20 -22 26 -45 26 -101v-20l-3 -151v-5c0 -25 5 -32 23 -32c17 0 37 4 64 14l4 -3v-48c0 -11 -2 -14 -13 -19c-35 -19 -88 -33 -122 -33s-52 11 -68 40c-82 -31 -119 -40 -162 -40
c-69 0 -111 46 -111 122c0 92 38 113 262 141c0 57 -1 63 -7 74c-8 15 -30 23 -62 23c-55 0 -95 -17 -129 -54zM292 94v95c-30 -4 -82 -13 -100 -17c-33 -7 -40 -15 -40 -46c0 -34 14 -47 53 -47c24 0 35 2 81 13z" />
    <glyph glyph-name="b" unicode="b" horiz-adv-x="555" 
d="M56 690h127v-295c69 27 116 38 164 38c108 0 179 -77 179 -195c0 -159 -111 -250 -306 -250c-45 0 -124 8 -153 16c-10 2 -11 4 -11 12v674zM183 321v-237c29 -9 60 -13 90 -13c81 0 121 47 121 143c0 87 -35 128 -109 128c-35 0 -68 -7 -102 -21z" />
    <glyph glyph-name="c" unicode="c" horiz-adv-x="426" 
d="M376 312h-21c-36 22 -62 30 -103 30c-67 0 -96 -33 -96 -111c0 -98 41 -148 120 -148c42 0 83 11 123 33l9 -5v-45c0 -11 -2 -14 -14 -22c-45 -32 -119 -56 -177 -56c-113 0 -187 77 -187 196c0 145 110 249 265 249c48 0 95 -12 117 -31c6 -5 7 -8 7 -23
c0 -13 -1 -16 -7 -24z" />
    <glyph glyph-name="d" unicode="d" horiz-adv-x="555" 
d="M372 690h127v-690h-127l2 40c-49 -33 -100 -50 -154 -50c-114 0 -191 77 -191 191c0 138 118 246 269 246c23 0 40 -2 74 -8v271zM372 104v212c-31 14 -60 20 -97 20c-78 0 -114 -36 -114 -116c0 -89 44 -143 117 -143c31 0 62 9 94 27z" />
    <glyph glyph-name="e" unicode="e" horiz-adv-x="463" 
d="M441 201l-279 -19c9 -71 42 -103 109 -103c49 0 99 14 143 41l7 -2l17 -50c1 0 1 -3 1 -4c0 -5 -3 -8 -15 -16c-55 -36 -134 -60 -199 -60c-123 0 -195 77 -195 208c0 72 25 137 70 180c40 39 90 57 154 57c78 0 130 -29 161 -91c17 -36 25 -76 26 -141zM161 250l140 11
c-1 39 -4 54 -12 69c-11 21 -29 33 -52 33c-44 0 -72 -41 -76 -113z" />
    <glyph glyph-name="f" unicode="f" horiz-adv-x="315" 
d="M198 422h143v-79h-143v-343h-128v343h-68v55l68 20v18c0 99 17 143 76 192c46 39 107 63 158 63c54 0 112 -26 112 -50c0 -7 -1 -11 -7 -18l-31 -48h-26c-27 20 -52 29 -85 29c-23 0 -43 -9 -54 -26c-12 -16 -15 -34 -15 -97v-59z" />
    <glyph glyph-name="g" unicode="g" horiz-adv-x="518" 
d="M518 421v-75h-94c20 -27 28 -52 28 -87c0 -61 -32 -109 -90 -136c-31 -15 -37 -17 -98 -32c-24 -6 -24 -6 -53 -14c-12 -3 -17 -7 -17 -15c0 -11 6 -15 28 -20c11 -2 11 -2 94 -12c98 -11 116 -15 146 -34c31 -20 47 -49 47 -85c0 -98 -143 -180 -314 -180
c-78 0 -130 15 -165 47c-17 16 -27 38 -27 59c0 52 46 86 165 121c-60 12 -82 33 -82 75c0 23 9 36 33 48c9 5 16 7 59 23c-92 21 -134 69 -134 151c0 105 86 178 209 178c30 0 43 -2 98 -14zM257 149c51 14 73 46 73 104c0 70 -31 112 -81 112c-51 0 -83 -39 -83 -99
c0 -65 33 -107 91 -117zM246 -60c-79 -20 -122 -48 -122 -79c0 -36 48 -60 117 -60c90 0 169 37 169 79c0 23 -22 40 -62 48c-31 6 -81 12 -102 12z" />
    <glyph glyph-name="h" unicode="h" horiz-adv-x="537" 
d="M56 690h127v-304c65 32 118 47 167 47c47 0 80 -14 104 -45c23 -29 28 -52 28 -132v-256h-128v256c0 58 -15 78 -59 78c-27 0 -63 -11 -112 -34v-300h-127v690z" />
    <glyph glyph-name="i" unicode="i" horiz-adv-x="241" 
d="M56 422h129v-422h-129v422zM121 697c40 0 72 -33 72 -73c0 -39 -33 -71 -73 -71c-38 0 -71 33 -71 72c0 40 32 72 72 72z" />
    <glyph glyph-name="j" unicode="j" horiz-adv-x="241" 
d="M55 422h129v-455c0 -87 -19 -137 -68 -182c-40 -36 -93 -57 -145 -57c-26 0 -60 7 -72 16c-6 3 -7 8 -7 20c0 18 0 19 9 28l42 42h18c17 -8 30 -11 48 -11c24 0 38 8 43 24c3 9 3 10 3 77v498zM120 697c40 0 72 -32 72 -72s-33 -72 -73 -72c-38 0 -71 33 -71 71
c0 40 32 73 72 73z" />
    <glyph glyph-name="k" unicode="k" horiz-adv-x="518" 
d="M56 690h127v-690h-127v690zM374 422h148l-200 -167l210 -255h-169l-175 228z" />
    <glyph glyph-name="l" unicode="l" horiz-adv-x="241" 
d="M56 690h129v-690h-129v690z" />
    <glyph glyph-name="m" unicode="m" horiz-adv-x="815" 
d="M56 422h129l-2 -46c56 39 106 57 158 57s87 -20 108 -64c67 46 116 64 170 64c58 0 102 -22 124 -62c14 -25 17 -48 17 -121v-250h-129v250c0 39 -1 50 -8 61c-8 14 -25 23 -44 23c-27 0 -66 -14 -106 -38v-296h-129v260c0 31 -2 43 -9 53c-8 13 -26 21 -47 21
c-28 0 -61 -14 -103 -42v-292h-129v422z" />
    <glyph glyph-name="n" unicode="n" horiz-adv-x="537" 
d="M56 422h129l-2 -51c63 41 121 62 171 62s89 -21 111 -57c15 -26 17 -42 17 -117v-259h-128v230c0 45 -1 63 -6 75c-8 19 -24 29 -51 29c-34 0 -69 -14 -112 -44v-290h-129v422z" />
    <glyph glyph-name="o" unicode="o" horiz-adv-x="555" 
d="M298 433c136 0 228 -89 228 -221c0 -133 -104 -225 -254 -225c-148 0 -242 86 -242 222c0 135 106 224 268 224zM274 357c-68 0 -107 -47 -107 -127c0 -99 50 -167 121 -167c62 0 100 48 100 127c0 97 -48 167 -114 167z" />
    <glyph glyph-name="p" unicode="p" horiz-adv-x="555" 
d="M183 4v-254c0 -7 -1 -8 -8 -8h-111c-7 0 -8 1 -8 8v664c0 7 1 8 8 8h111c6 0 9 -2 8 -6v-2l-2 -30c79 40 109 49 165 49c50 0 90 -14 120 -42c37 -35 60 -91 60 -149c0 -136 -118 -246 -265 -246c-20 0 -38 2 -78 8zM183 313v-203c42 -20 65 -26 99 -26
c74 0 112 43 112 128c0 84 -38 130 -106 130c-36 0 -68 -9 -105 -29z" />
    <glyph glyph-name="q" unicode="q" horiz-adv-x="555" 
d="M372 -250v277c-68 -25 -119 -37 -163 -37c-111 0 -180 72 -180 190c0 155 112 253 289 253c52 0 137 -10 171 -20c8 -3 10 -5 10 -11v-652c0 -7 -1 -8 -8 -8h-111c-6 0 -8 2 -8 8zM372 101v236c-28 9 -54 13 -81 13c-85 0 -125 -43 -125 -135c0 -89 38 -134 112 -134
c31 0 66 7 94 20z" />
    <glyph glyph-name="r" unicode="r" horiz-adv-x="370" 
d="M56 422h129l-4 -103c49 82 90 114 145 114c19 0 47 -8 59 -16c6 -4 7 -7 7 -18c0 -8 0 -8 -4 -21l-28 -72h-18c-14 11 -24 15 -41 15c-44 0 -77 -31 -116 -107v-214h-129v422z" />
    <glyph glyph-name="s" unicode="s" horiz-adv-x="426" 
d="M368 338l-32 -15c-40 24 -74 34 -116 34c-41 0 -62 -13 -62 -40c0 -24 6 -28 90 -53c112 -33 150 -66 150 -129c0 -87 -81 -145 -203 -145c-40 0 -120 11 -148 21c-6 2 -7 4 -8 13l-10 71l33 15c39 -29 86 -44 144 -44c42 0 69 17 69 45c0 25 -9 30 -86 53
c-67 19 -82 25 -106 42c-28 20 -43 50 -43 86c0 86 76 138 199 138c38 0 95 -6 114 -13c7 -2 7 -3 8 -15z" />
    <glyph glyph-name="t" unicode="t" horiz-adv-x="352" 
d="M195 422h165v-72h-165v-181c0 -72 16 -99 57 -99c28 0 60 7 94 21l8 -3l11 -45v-4c0 -4 -3 -7 -21 -14c-59 -26 -111 -38 -158 -38c-42 0 -76 17 -94 46c-13 22 -18 50 -18 100v9l3 205h-60v33l146 147h34z" />
    <glyph glyph-name="u" unicode="u" horiz-adv-x="537" 
d="M481 422v-422h-124l2 44c-51 -34 -112 -54 -165 -54s-96 20 -118 55c-16 27 -21 56 -21 139v238h129v-237c0 -45 2 -60 9 -73c9 -17 27 -27 50 -27c31 0 72 14 110 38v299h128z" />
    <glyph glyph-name="v" unicode="v" horiz-adv-x="444" 
d="M-8 422h146l103 -279l111 279h112l-207 -422h-87z" />
    <glyph glyph-name="w" unicode="w" horiz-adv-x="704" 
d="M-2 422h137l91 -293l104 293h84l87 -293l109 293h109l-197 -422h-97l-78 241l-94 -241h-97z" />
    <glyph glyph-name="x" unicode="x" horiz-adv-x="463" 
d="M9 422h147l93 -127l93 127h131l-173 -197l171 -225h-149l-100 144l-103 -144h-132l182 214z" />
    <glyph glyph-name="y" unicode="y" horiz-adv-x="444" 
d="M-2 422h147l89 -286l123 286h112l-353 -691l-111 24l155 240z" />
    <glyph glyph-name="z" unicode="z" horiz-adv-x="426" 
d="M32 422h384v-55l-243 -292h246l-16 -75h-397v54l244 293h-218v75z" />
    <glyph glyph-name="braceleft" unicode="{" horiz-adv-x="389" 
d="M349 686v-74c-58 0 -75 -4 -87 -19c-8 -8 -10 -21 -11 -49v-57v-60v-58c0 -60 -5 -85 -20 -107c-16 -23 -31 -34 -62 -45c24 -9 35 -15 48 -28c27 -27 34 -54 34 -126c0 -194 0 -194 4 -210c5 -22 28 -32 76 -32c3 0 10 0 18 1v-74c-16 -1 -25 -1 -35 -1
c-118 0 -167 30 -178 111c-3 21 -3 21 -3 217c1 79 -21 102 -96 106l-16 1v70l16 1c71 3 95 26 96 92v152c0 93 7 124 34 149c28 28 74 40 148 40h34z" />
    <glyph glyph-name="bar" unicode="|" horiz-adv-x="476" 
d="M176 634h124v-793h-124v793z" />
    <glyph glyph-name="braceright" unicode="}" horiz-adv-x="389" 
d="M40 -252v74c6 -1 12 -1 14 -1c49 0 69 7 78 26c6 13 6 29 6 159c0 101 0 107 7 137c10 36 37 62 75 74c-59 20 -82 59 -82 134v194c-1 55 -16 68 -80 68c-3 0 -10 0 -18 -1v74c16 1 25 1 35 1c118 0 167 -30 178 -111c3 -21 3 -21 3 -217c-1 -79 21 -103 96 -106l16 -1
v-70l-16 -1c-71 -3 -95 -26 -96 -93v-151c0 -93 -7 -124 -34 -150c-28 -28 -74 -40 -148 -40c-11 0 -19 0 -34 1z" />
    <glyph glyph-name="asciitilde" unicode="~" horiz-adv-x="634" 
d="M154 533l-68 44c3 7 7 15 7 16c24 55 35 72 60 92c21 16 47 25 78 25c22 0 50 -7 98 -24c53 -19 63 -22 83 -22c29 0 45 11 67 47l70 -40c-28 -59 -44 -81 -70 -100c-25 -18 -53 -27 -81 -27c-20 0 -38 5 -98 26c-51 18 -62 21 -76 21c-16 0 -32 -6 -43 -16
c-8 -7 -11 -11 -27 -42z" />
    <glyph glyph-name="exclamdown" unicode="&#xa1;" horiz-adv-x="370" 
d="M258 -222h-146v128l48 340h50l48 -340v-128zM186 432c42 0 78 -36 78 -78c0 -44 -35 -80 -79 -80s-79 36 -79 79c0 44 36 79 80 79z" />
    <glyph glyph-name="cent" unicode="&#xa2;" horiz-adv-x="556" 
d="M284 606h63v-62c42 -1 74 -10 103 -28c14 -9 16 -13 16 -32c0 -15 -1 -20 -8 -26l-36 -34h-28c-13 19 -28 29 -47 31v-225c28 2 56 18 80 47h13l35 -57c1 -1 2 -6 2 -7c0 -4 -9 -13 -25 -24c-38 -27 -67 -40 -105 -49v-92h-63v86c-50 3 -78 13 -107 38
c-44 36 -67 91 -67 160c0 111 64 188 174 208v66zM284 234v221c-46 -10 -64 -38 -64 -99c0 -70 18 -105 64 -122z" />
    <glyph glyph-name="sterling" unicode="&#xa3;" horiz-adv-x="555" 
d="M409 333v-75h-121c3 -12 5 -27 5 -39c0 -42 -18 -76 -60 -113c17 3 32 5 47 5c16 0 46 -3 85 -8c54 -8 64 -9 82 -9c31 0 56 8 74 25l22 -10v-56c0 -12 -1 -14 -11 -22c-33 -28 -81 -43 -132 -43c-29 0 -38 1 -121 16c-38 6 -52 8 -68 8c-27 0 -53 -7 -72 -18
c-15 -9 -15 -9 -17 -9c-3 0 -6 2 -9 9l-19 32c-4 6 -5 9 -5 11c0 3 0 3 16 15c48 36 67 66 67 106c0 23 -6 54 -18 100h-97v75h76c-11 51 -14 68 -14 96c0 127 109 218 260 218c93 0 153 -41 153 -104c0 -19 -7 -34 -16 -38l-70 -26l-28 12c0 45 -31 73 -81 73
c-58 0 -92 -34 -92 -93c0 -29 11 -85 26 -138h138z" />
    <glyph glyph-name="fraction" unicode="&#x2044;" horiz-adv-x="111" 
d="M229 634h79l-435 -646h-79z" />
    <glyph glyph-name="fraction" unicode="&#x2215;" horiz-adv-x="111" 
d="M229 634h79l-435 -646h-79z" />
    <glyph glyph-name="yen" unicode="&#xa5;" horiz-adv-x="555" 
d="M0 634h161l143 -273l143 273h130l-166 -256h124v-56h-160l-27 -42v-31h187v-56h-187v-193h-136v193h-170v56h170v27l-27 46h-143v56h110z" />
    <glyph glyph-name="florin" unicode="&#x192;" horiz-adv-x="556" 
d="M320 344h107l-17 -75h-106l-18 -83c-45 -206 -49 -219 -85 -269c-40 -57 -109 -95 -174 -95c-49 0 -89 18 -89 39v8l-1 3c4 7 6 11 8 14l42 47h29c29 -19 34 -21 46 -21c28 0 37 22 66 162l43 195h-82l14 64l84 11l7 33c25 111 42 147 96 192c59 50 123 77 182 77
c63 0 120 -32 120 -67c0 -5 -2 -15 -5 -26c-3 -12 -5 -14 -16 -19l-47 -23h-37c-10 26 -31 38 -65 38c-29 0 -50 -12 -60 -36c-6 -12 -15 -49 -26 -100z" />
    <glyph glyph-name="section" unicode="&#xa7;" horiz-adv-x="555" 
d="M414 507h-31c-18 35 -49 52 -94 52c-50 0 -83 -27 -83 -68c0 -40 20 -60 122 -122c126 -76 163 -118 163 -186c0 -54 -26 -100 -83 -147c30 -30 47 -67 47 -105c0 -104 -115 -195 -246 -195c-53 0 -108 17 -137 42c-8 6 -9 9 -9 25c0 20 0 21 6 29l40 55h25
c25 -37 69 -60 118 -60c52 0 86 27 86 68c0 36 -21 57 -110 112c-128 79 -161 116 -161 182c0 54 25 98 79 142c-38 34 -57 72 -57 116c0 108 111 199 243 199c56 0 101 -15 126 -42c6 -6 7 -12 7 -29c0 -23 0 -23 -9 -31zM201 297c-17 -19 -24 -36 -24 -59
c0 -38 18 -60 93 -107c38 -24 43 -27 86 -55c17 18 24 35 24 56c0 38 -21 62 -92 108c-35 22 -44 28 -87 57z" />
    <glyph glyph-name="currency" unicode="&#xa4;" horiz-adv-x="556" 
d="M171 166l-72 -72c-8 -7 -9 -8 -11 -8c-3 0 -7 2 -10 6l-32 32c-4 3 -6 7 -6 10c0 2 3 6 8 11l72 72c-24 39 -33 70 -33 107c0 38 10 71 33 107l-72 73c-5 4 -8 9 -8 11s2 6 6 9l31 32c4 4 8 6 11 6c2 0 5 -2 9 -6l74 -74c36 23 68 33 107 33c38 0 70 -10 107 -33l72 72
c7 7 8 8 11 8c2 0 7 -2 10 -6l32 -32c4 -4 6 -7 6 -10c0 -2 -2 -5 -7 -9l-73 -74c22 -36 32 -69 32 -107c0 -37 -10 -69 -32 -107l72 -72c5 -5 8 -9 8 -12c0 -2 -1 -4 -6 -9l-32 -32c-4 -5 -7 -6 -10 -6c-2 0 -4 1 -11 8l-72 72c-37 -22 -72 -32 -107 -32
c-36 0 -71 11 -107 32zM279 422c-55 0 -99 -43 -99 -97s44 -98 98 -98c53 0 97 44 97 98c0 52 -44 97 -96 97z" />
    <glyph glyph-name="quotesingle" unicode="'" horiz-adv-x="370" 
d="M157 324l-24 221v89h104v-89l-24 -221h-56z" />
    <glyph glyph-name="quotedblleft" unicode="&#x201c;" 
d="M459 612v-4c-57 -40 -93 -84 -93 -113c0 -11 7 -18 22 -26c35 -16 43 -27 43 -55c0 -37 -32 -65 -74 -65c-55 0 -93 43 -93 105c0 54 27 107 77 153c23 21 67 51 75 51c2 0 2 0 6 -5zM237 612v-4c-56 -39 -93 -84 -93 -113c0 -11 7 -18 23 -26c34 -16 42 -27 42 -55
c0 -38 -31 -65 -74 -65c-55 0 -93 43 -93 105c0 54 27 107 77 153c23 21 67 51 75 51c2 0 2 0 6 -5z" />
    <glyph glyph-name="guillemotleft" unicode="&#xab;" horiz-adv-x="519" 
d="M477 84l-52 -29l-179 183l179 182l52 -29l-102 -153zM273 84l-51 -29l-180 183l180 182l51 -29l-101 -153z" />
    <glyph glyph-name="guilsinglleft" unicode="&#x2039;" horiz-adv-x="315" 
d="M273 84l-51 -29l-180 183l180 182l51 -29l-101 -153z" />
    <glyph glyph-name="guilsinglright" unicode="&#x203a;" horiz-adv-x="315" 
d="M42 391l52 29l179 -182l-179 -183l-52 29l102 154z" />
    <glyph glyph-name="endash" unicode="&#x2013;" 
d="M37 268h426v-69h-426v69z" />
    <glyph glyph-name="dagger" unicode="&#x2020;" horiz-adv-x="556" 
d="M225 634h107v-73l-10 -161l117 8h69v-94h-69l-117 11l9 -156l-10 -438h-85l-10 438l9 156l-118 -11h-69v94h69l118 -8l-10 161v73z" />
    <glyph glyph-name="daggerdbl" unicode="&#x2021;" horiz-adv-x="556" 
d="M225 634h107v-73l-12 -141l125 7h63v-94h-63l-126 7l10 -111l-10 -139l126 7h63v-94h-63l-125 7l10 -164v-114h-104v114l10 164l-125 -7h-63v94h63l125 -7l-9 139l9 111l-125 -7h-63v94h63l125 -7l-11 141v73z" />
    <glyph glyph-name="periodcentered" unicode="&#xb7;" horiz-adv-x="278" 
d="M139 319c44 0 79 -36 79 -80c0 -43 -36 -78 -80 -78c-42 0 -78 36 -78 79s35 79 79 79z" />
    <glyph glyph-name="periodcentered" unicode="&#x2219;" horiz-adv-x="278" 
d="M139 319c44 0 79 -36 79 -80c0 -43 -36 -78 -80 -78c-42 0 -78 36 -78 79s35 79 79 79z" />
    <glyph glyph-name="paragraph" unicode="&#xb6;" horiz-adv-x="685" 
d="M499 686h54v-110c76 1 112 14 125 44h17l14 -36c2 -4 3 -11 3 -15c0 -14 -15 -23 -48 -28c-19 -3 -56 -5 -111 -6v-561c0 -81 -14 -124 -50 -156c-26 -23 -67 -38 -102 -38c-14 0 -17 3 -21 25l-7 35l11 15c44 8 55 12 73 25c26 20 42 57 42 97v64c-52 -2 -84 -3 -97 -3
c-79 0 -135 8 -182 27c-108 43 -170 135 -170 251c0 83 33 157 90 202c53 42 120 61 218 61c27 0 91 -1 141 -3v110zM499 535h-76c-22 0 -32 -4 -37 -14c-5 -9 -5 -9 -6 -71v-280c1 -64 1 -64 5 -73c5 -11 16 -16 38 -16h76v454z" />
    <glyph glyph-name="bullet" unicode="&#x2022;" horiz-adv-x="634" 
d="M320 454c71 0 130 -60 130 -132c0 -73 -59 -132 -132 -132c-72 0 -132 59 -132 132s59 132 134 132z" />
    <glyph glyph-name="quotesinglbase" unicode="&#x201a;" horiz-adv-x="278" 
d="M42 -121v3c56 39 93 84 93 113c0 11 -7 19 -22 26c-35 16 -43 27 -43 55c0 38 31 65 74 65c55 0 93 -42 93 -105c0 -54 -27 -107 -77 -153c-23 -20 -68 -51 -75 -51c-2 0 -3 1 -6 5z" />
    <glyph glyph-name="quotedblbase" unicode="&#x201e;" 
d="M42 -121v3c56 39 93 84 93 113c0 11 -7 19 -22 26c-35 16 -43 27 -43 55c0 38 31 65 74 65c55 0 93 -42 93 -105c0 -54 -27 -107 -77 -153c-23 -20 -68 -51 -75 -51c-2 0 -3 1 -6 5zM264 -121v3c57 40 93 84 93 113c0 11 -7 19 -22 26c-35 16 -43 27 -43 55
c0 38 32 65 74 65c55 0 93 -42 93 -105c0 -54 -27 -107 -77 -153c-23 -20 -68 -51 -75 -51c-2 0 -2 0 -6 5z" />
    <glyph glyph-name="quotedblright" unicode="&#x201d;" 
d="M42 395v4c55 37 93 83 93 113c0 10 -7 18 -22 26c-35 16 -43 26 -43 55c0 38 31 65 74 65c55 0 93 -42 93 -105c0 -54 -27 -107 -77 -153c-22 -20 -68 -51 -75 -51c-2 0 -4 2 -6 4zM264 395v4c56 38 93 83 93 112c0 14 -5 18 -37 33c-18 9 -28 27 -28 49
c0 38 31 65 74 65c56 0 93 -42 93 -105c0 -54 -27 -107 -77 -153c-23 -21 -68 -51 -75 -51c-2 0 -4 2 -6 4z" />
    <glyph glyph-name="guillemotright" unicode="&#xbb;" horiz-adv-x="519" 
d="M42 391l52 29l179 -182l-179 -183l-52 29l102 154zM246 391l51 29l180 -182l-180 -183l-51 29l101 154z" />
    <glyph glyph-name="ellipsis" unicode="&#x2026;" horiz-adv-x="833" 
d="M139 146c44 0 79 -35 79 -80c0 -43 -36 -78 -80 -78c-42 0 -78 36 -78 78c0 45 35 80 79 80zM417 146c44 0 79 -35 79 -79s-36 -79 -80 -79c-42 0 -78 36 -78 78c0 45 35 80 79 80zM694 146c44 0 79 -35 79 -80c0 -43 -36 -78 -80 -78c-42 0 -78 36 -78 78
c0 44 35 80 79 80z" />
    <glyph glyph-name="perthousand" unicode="&#x2030;" horiz-adv-x="1185" 
d="M201 646c101 0 164 -64 164 -166c0 -109 -66 -175 -175 -175c-102 0 -166 63 -166 163c0 111 67 178 177 178zM196 584c-42 0 -68 -43 -68 -113c0 -65 24 -104 64 -104c42 0 69 43 69 109c0 68 -24 108 -65 108zM574 634h80l-436 -646h-79zM609 329
c100 0 163 -64 163 -166c0 -109 -66 -175 -175 -175c-103 0 -166 62 -166 163c0 111 67 178 178 178zM604 267c-43 0 -69 -43 -69 -113c0 -65 24 -104 64 -104c42 0 69 43 69 109c0 68 -24 108 -64 108zM997 329c100 0 163 -64 163 -166c0 -109 -66 -175 -175 -175
c-103 0 -166 63 -166 163c0 111 67 178 178 178zM992 267c-43 0 -69 -43 -69 -113c0 -66 24 -104 64 -104c42 0 69 43 69 109c0 68 -24 108 -64 108z" />
    <glyph glyph-name="questiondown" unicode="&#xbf;" horiz-adv-x="407" 
d="M347 -95l20 -59c2 -4 3 -12 3 -23c0 -12 -1 -15 -6 -19c-21 -17 -69 -30 -114 -30c-67 0 -123 26 -164 76c-30 36 -49 85 -49 127c0 45 20 85 58 115c11 9 68 44 104 64c39 22 41 26 43 86h70c1 -14 2 -26 2 -31c3 -31 4 -58 4 -75c0 -39 -12 -52 -95 -105
c-67 -41 -82 -58 -82 -94c0 -37 29 -61 74 -61c34 0 64 9 97 29h35zM276 432c42 0 78 -36 78 -78c0 -45 -35 -80 -79 -80s-79 35 -79 79s36 79 80 79z" />
    <glyph glyph-name="grave" unicode="`" 
d="M199 654l126 -180l-56 -9l-172 133v27z" />
    <glyph glyph-name="acute" unicode="&#xb4;" 
d="M302 654l102 -29v-27l-172 -133l-56 9z" />
    <glyph glyph-name="circumflex" unicode="&#x2c6;" 
d="M215 644h70l111 -170l-43 -19l-103 87l-103 -87l-43 19z" />
    <glyph glyph-name="tilde" unicode="&#x2dc;" 
d="M369 626h5l37 -26c-18 -76 -59 -119 -112 -119c-23 0 -35 5 -73 30c-25 16 -36 21 -49 21c-22 0 -35 -15 -45 -51h-5l-39 27c26 81 62 118 114 118c21 0 29 -3 77 -33c22 -14 32 -18 43 -18c22 0 33 13 47 51z" />
    <glyph glyph-name="macron" unicode="&#xaf;" 
d="M116 592h268v-94h-268v94z" />
    <glyph glyph-name="macron" unicode="&#x2c9;" 
d="M116 592h268v-94h-268v94z" />
    <glyph glyph-name="breve" unicode="&#x2d8;" 
d="M113 626h56c2 -45 29 -67 81 -67s79 23 81 67h55c1 -7 1 -14 1 -17c0 -82 -55 -138 -137 -138c-83 0 -137 55 -137 141v14z" />
    <glyph glyph-name="dotaccent" unicode="&#x2d9;" 
d="M250 612c34 0 62 -28 62 -62s-28 -62 -63 -62c-33 0 -61 28 -61 62s28 62 62 62z" />
    <glyph glyph-name="dieresis" unicode="&#xa8;" 
d="M150 609c32 0 59 -27 59 -59c0 -33 -27 -59 -60 -59c-31 0 -58 27 -58 59s27 59 59 59zM349 609c32 0 59 -27 59 -59c0 -33 -27 -59 -60 -59c-31 0 -58 27 -58 59s27 59 59 59z" />
    <glyph glyph-name="ring" unicode="&#x2da;" 
d="M251 692c66 0 119 -49 119 -110c0 -62 -52 -109 -121 -109c-65 0 -118 49 -118 109c0 61 53 110 120 110zM250 642c-28 0 -50 -26 -50 -60c0 -35 23 -61 52 -61s49 25 49 61c0 34 -22 60 -51 60z" />
    <glyph glyph-name="cedilla" unicode="&#xb8;" 
d="M239 0h64l-27 -46v-9c33 -14 51 -35 51 -62c0 -54 -65 -108 -131 -108c-35 0 -72 20 -72 39c0 3 1 6 4 8l33 29h12c15 -17 29 -24 45 -24c15 0 26 10 26 23c0 17 -12 27 -60 52v24z" />
    <glyph glyph-name="hungarumlaut" unicode="&#x2dd;" 
d="M253 650l77 -20l2 -27l-131 -147l-57 4zM402 650l76 -20l2 -27l-131 -147l-57 4z" />
    <glyph glyph-name="ogonek" unicode="&#x2db;" 
d="M271 0h70c-42 -48 -58 -78 -58 -106c0 -25 20 -40 52 -40c11 0 31 1 40 3h10l-3 -20c-1 -14 -2 -15 -10 -20c-16 -10 -51 -19 -77 -19c-59 0 -99 35 -99 85c0 38 24 75 75 117z" />
    <glyph glyph-name="caron" unicode="&#x2c7;" 
d="M285 472h-70l-111 170l43 19l103 -88l103 88l43 -19z" />
    <glyph glyph-name="emdash" unicode="&#x2014;" horiz-adv-x="759" 
d="M32 268h696v-69h-696v69z" />
    <glyph glyph-name="AE" unicode="&#xc6;" horiz-adv-x="926" 
d="M386 634h505v-79h-322v-182h288v-79h-288v-210h333v-84h-463v219h-225l-142 -219h-131zM439 294v261h-7l-167 -261h174z" />
    <glyph glyph-name="ordfeminine" unicode="&#xaa;" horiz-adv-x="333" 
d="M39 434l-3 38v3c-2 17 75 41 134 41c50 0 85 -14 99 -39c10 -15 10 -15 10 -63l-2 -88c1 -17 1 -18 12 -18s23 2 41 9l6 -5v-30c0 -8 -1 -10 -11 -15c-21 -10 -57 -19 -79 -19c-23 0 -36 7 -47 22c-60 -19 -75 -22 -103 -22c-47 0 -76 29 -76 76c0 56 26 69 170 86
c0 27 -1 32 -4 37c-4 8 -17 12 -36 12c-37 0 -61 -9 -83 -32zM190 364h-4l-19 -3c-53 -7 -60 -10 -60 -28c0 -20 7 -25 30 -25c15 0 33 3 53 8v48z" />
    <glyph glyph-name="Lslash" unicode="&#x141;" 
d="M79 238l-75 -55v82l75 55v314h139v-236l138 103v-82l-138 -103v-232h294v-84h-433v238z" />
    <glyph glyph-name="Oslash" unicode="&#xd8;" horiz-adv-x="796" 
d="M586 611l51 67h76l-73 -97c82 -63 124 -150 124 -260c0 -198 -153 -334 -378 -334c-64 0 -119 11 -172 34l-55 -73h-76l78 103c-84 64 -128 154 -128 262c0 102 41 186 122 250c70 55 156 84 252 84c65 0 124 -12 179 -36zM239 144l277 384c-38 26 -82 40 -128 40
c-124 0 -209 -99 -209 -242c0 -71 19 -128 60 -182zM561 486l-277 -382c38 -25 81 -38 124 -38c48 0 95 17 132 47c52 44 78 107 78 190c0 73 -19 133 -57 183z" />
    <glyph glyph-name="OE" unicode="&#x152;" horiz-adv-x="1000" 
d="M527 634h438v-79h-316v-182h283v-79h-283v-210h328v-84h-450v13c-46 -17 -97 -25 -151 -25c-94 0 -175 26 -232 75c-72 62 -111 152 -111 256c0 194 149 327 368 327c48 0 83 -6 126 -22v10zM519 102v440c-44 18 -77 25 -116 25c-134 0 -224 -98 -224 -243
c0 -150 93 -258 223 -258c42 0 79 11 117 36z" />
    <glyph glyph-name="ordmasculine" unicode="&#xba;" horiz-adv-x="370" 
d="M197 516c85 0 143 -54 143 -134s-65 -136 -159 -136c-93 0 -151 52 -151 134s66 136 167 136zM182 464c-35 0 -55 -25 -55 -70c0 -56 26 -95 65 -95c32 0 51 27 51 71c0 54 -25 94 -61 94z" />
    <glyph glyph-name="ae" unicode="&#xe6;" horiz-adv-x="722" 
d="M698 217l-281 -23c5 -85 39 -121 112 -121c49 0 96 13 146 41l7 -1l18 -48c1 -2 1 -4 1 -5c0 -6 -8 -11 -37 -26c-62 -33 -125 -49 -187 -49c-58 0 -103 14 -135 44c-72 -29 -127 -41 -179 -41c-88 0 -132 40 -132 120c0 62 28 93 101 112c30 8 91 19 165 30
c-1 44 -1 49 -5 64c-7 27 -29 41 -67 41c-50 0 -100 -21 -134 -57l-29 9l-8 63l-2 10c0 5 7 10 29 20c48 21 109 33 169 33c57 0 90 -9 127 -36c48 27 82 36 135 36c121 0 187 -69 187 -196c0 -2 0 -12 -1 -20zM417 262l143 14c-2 57 -26 87 -68 87c-46 0 -72 -35 -75 -101z
M296 181c-39 -2 -75 -8 -95 -15c-28 -9 -38 -23 -38 -48c0 -32 15 -47 46 -47s67 8 98 22c-8 27 -11 48 -11 88z" />
    <glyph glyph-name="dotlessi" unicode="&#x131;" horiz-adv-x="241" 
d="M56 422h129v-422h-129v422z" />
    <glyph glyph-name="lslash" unicode="&#x142;" horiz-adv-x="278" 
d="M87 290l-82 -62v78l82 61v323h128v-252l88 64v-78l-88 -64v-360h-128v290z" />
    <glyph glyph-name="oslash" unicode="&#xf8;" horiz-adv-x="555" 
d="M399 414l35 47h63l-54 -73c55 -42 83 -102 83 -176c0 -133 -104 -225 -253 -225c-42 0 -80 7 -113 20l-40 -54l-61 2l56 76c-55 40 -85 103 -85 179c0 134 106 223 265 223c41 0 73 -6 104 -19zM189 121l148 217c-19 16 -38 23 -64 23c-69 0 -111 -49 -111 -129
c0 -42 8 -74 27 -111zM368 296l-146 -214c20 -16 42 -23 66 -23c65 0 106 50 106 131c0 39 -8 71 -26 106z" />
    <glyph glyph-name="oe" unicode="&#x153;" horiz-adv-x="833" 
d="M811 211l-280 -26c5 -76 45 -114 121 -114c44 0 84 13 126 42l8 -2l17 -50c1 -1 1 -3 1 -4c0 -5 -4 -9 -19 -18c-56 -34 -112 -51 -168 -51c-73 0 -122 22 -158 70c-57 -48 -119 -70 -200 -70c-136 0 -229 87 -229 214c0 137 109 231 269 231c71 0 124 -18 170 -58
c41 39 93 58 153 58c72 0 130 -28 161 -78c18 -29 29 -78 29 -132c0 -2 0 -7 -1 -12zM530 253l142 14c0 60 -25 96 -66 96c-45 0 -73 -40 -76 -110zM290 357c-77 0 -123 -49 -123 -131c0 -93 55 -162 130 -162c71 0 114 53 114 141c0 93 -47 152 -121 152z" />
    <glyph glyph-name="germandbls" unicode="&#xdf;" horiz-adv-x="574" 
d="M47 0v455c0 102 13 142 61 179c46 36 123 57 208 57c119 0 189 -47 189 -128c0 -58 -28 -93 -107 -134c-61 -32 -74 -45 -74 -72c0 -29 12 -40 96 -79c102 -48 134 -82 134 -143c0 -44 -24 -86 -63 -113c-31 -21 -83 -34 -138 -34c-42 0 -106 10 -129 21c-6 2 -8 5 -9 14
l-8 62l34 23c33 -28 76 -44 114 -44c39 0 67 22 67 53c0 24 -12 35 -76 65c-108 52 -136 82 -136 148c0 51 25 86 98 134c51 34 65 54 65 92c0 39 -31 60 -87 60c-47 0 -81 -16 -96 -46c-11 -22 -14 -45 -14 -109v-461h-129z" />
    <glyph glyph-name="onesuperior" unicode="&#xb9;" horiz-adv-x="352" 
d="M201 639h38v-385h-94v294l-84 -35h-19v53z" />
    <glyph glyph-name="logicalnot" unicode="&#xac;" horiz-adv-x="476" 
d="M320 0v138h-288v115h412v-253h-124z" />
    <glyph glyph-name="mu" unicode="&#xb5;" horiz-adv-x="537" 
d="M481 422v-422h-120l2 47c-58 -43 -91 -57 -134 -57c-23 0 -40 5 -59 18c5 -32 6 -53 6 -93v-173h-121v680h127v-237c0 -45 2 -60 9 -73c9 -17 28 -27 52 -27c32 0 75 15 114 40v297h124z" />
    <glyph glyph-name="mu" unicode="&#x3bc;" horiz-adv-x="537" 
d="M481 422v-422h-120l2 47c-58 -43 -91 -57 -134 -57c-23 0 -40 5 -59 18c5 -32 6 -53 6 -93v-173h-121v680h127v-237c0 -45 2 -60 9 -73c9 -17 28 -27 52 -27c32 0 75 15 114 40v297h124z" />
    <glyph glyph-name="trademark" unicode="&#x2122;" horiz-adv-x="741" 
d="M-31 634h318v-54h-116v-263h-86v263h-116v54zM316 634h89l96 -201l104 201h91l12 -317h-83l-8 224l-114 -217l-32 -5l-110 231l-4 -233h-62z" />
    <glyph glyph-name="Eth" unicode="&#xd0;" horiz-adv-x="759" 
d="M78 305h-79v73h79v256c165 5 255 7 269 7c119 0 195 -16 255 -53c82 -50 124 -134 124 -249c0 -135 -57 -239 -160 -293c-63 -32 -147 -46 -283 -46h-205v305zM217 305v-227h109c84 0 143 14 179 42c51 40 75 105 75 203c0 99 -22 158 -74 196c-43 31 -89 43 -171 43
l-118 -1v-183h201v-73h-201z" />
    <glyph glyph-name="onehalf" unicode="&#xbd;" horiz-adv-x="815" 
d="M193 639h38v-385h-94v294l-84 -35h-19v53zM539 634h80l-436 -646h-79zM756 73l-18 -73h-287v37c150 137 187 183 187 232c0 35 -17 51 -53 51c-43 0 -70 -19 -84 -60c-2 -5 -3 -6 -10 -6h-8c-9 0 -9 0 -11 9l-9 32l-1 10c0 7 12 25 26 38c30 28 75 45 121 45
c79 0 127 -40 127 -105c0 -38 -16 -71 -54 -109c-17 -16 -56 -50 -117 -101h191z" />
    <glyph glyph-name="plusminus" unicode="&#xb1;" horiz-adv-x="556" 
d="M237 358v163c0 18 1 19 21 19h40c21 0 21 0 21 -25v-157h162c18 0 19 -1 19 -21v-40c0 -20 -1 -21 -25 -21h-156v-162c0 -17 -2 -19 -21 -19h-40c-19 0 -21 2 -21 19v162h-163c-17 0 -19 2 -19 21v40c0 19 2 21 19 21h163zM74 66h407c18 0 19 -1 19 -21v-40
c0 -20 -1 -21 -25 -21h-401c-18 0 -19 2 -19 21v40c0 19 2 21 19 21z" />
    <glyph glyph-name="Thorn" unicode="&#xde;" horiz-adv-x="592" 
d="M78 634h139v-101c37 4 64 5 98 5c85 0 139 -11 181 -37c54 -33 85 -92 85 -161s-33 -127 -93 -164c-46 -30 -110 -43 -200 -43c-21 0 -32 0 -71 2v-135h-139v634zM217 458v-243c25 -2 39 -3 65 -3c106 0 153 37 153 120c0 56 -23 97 -64 114c-22 9 -51 13 -102 13
c-9 0 -34 0 -52 -1z" />
    <glyph glyph-name="onequarter" unicode="&#xbc;" horiz-adv-x="815" 
d="M211 639h38v-385h-94v294l-84 -35h-19v53zM552 634h79l-435 -646h-79zM758 150v-63h-66v-87h-87v87h-190v48l213 246h64v-231h66zM605 150v130l-111 -130h111z" />
    <glyph glyph-name="divide" unicode="&#xf7;" horiz-adv-x="556" 
d="M278 536c38 0 69 -31 69 -69s-31 -69 -70 -69c-37 0 -68 32 -68 69c0 38 31 69 69 69zM278 237c38 0 69 -31 69 -69s-31 -69 -70 -69c-37 0 -68 31 -68 69s31 69 69 69zM74 358h407c18 0 19 -1 19 -21v-40c0 -20 -1 -21 -25 -21h-401c-17 0 -19 2 -19 21v40
c0 19 2 21 19 21z" />
    <glyph glyph-name="brokenbar" unicode="&#xa6;" horiz-adv-x="476" 
d="M176 634h124v-330h-124v330zM176 146h124v-305h-124v305z" />
    <glyph glyph-name="degree" unicode="&#xb0;" horiz-adv-x="555" 
d="M278 646c90 0 163 -73 163 -163s-73 -162 -165 -162c-87 0 -161 74 -161 161c0 91 73 164 163 164zM278 569c-47 0 -85 -38 -85 -86c0 -46 39 -85 84 -85c48 0 86 38 86 85s-38 86 -85 86z" />
    <glyph glyph-name="thorn" unicode="&#xfe;" horiz-adv-x="555" 
d="M185 4v-254c0 -7 -2 -8 -10 -8h-111c-7 0 -8 1 -8 8v932c0 7 1 8 8 8h111c7 0 8 -1 8 -8v-298c5 2 11 5 16 8c63 32 96 41 147 41c50 0 90 -14 120 -42c37 -35 60 -91 60 -149c0 -136 -118 -246 -266 -246c-21 0 -39 2 -75 8zM183 313v-203c43 -20 66 -26 100 -26
c73 0 111 43 111 128c0 84 -38 130 -106 130c-35 0 -67 -9 -105 -29z" />
    <glyph glyph-name="threequarters" unicode="&#xbe;" horiz-adv-x="815" 
d="M116 422l-12 40c67 27 74 30 89 41c13 10 20 26 20 43c0 24 -15 37 -44 37c-36 0 -65 -15 -77 -40c-2 -4 -4 -5 -10 -5h-7c-9 0 -11 1 -12 9l-7 30c-2 6 -2 6 -2 8c0 5 6 11 21 22c33 24 69 35 117 35c71 0 115 -31 115 -81c0 -32 -17 -54 -62 -80c59 -15 88 -47 88 -98
c0 -39 -22 -79 -55 -103c-29 -21 -72 -33 -121 -33c-52 0 -87 12 -112 37c-10 12 -12 16 -12 31c0 13 1 16 6 19l26 13c7 4 10 5 17 5h10c8 0 9 -1 11 -6c9 -28 33 -44 67 -44c40 0 66 26 66 66c0 42 -22 62 -66 62c-16 0 -29 -2 -54 -8zM603 634h80l-436 -646h-78zM788 150
v-63h-66v-87h-87v87h-191v48l214 246h64v-231h66zM635 150v130l-112 -130h112z" />
    <glyph glyph-name="twosuperior" unicode="&#xb2;" horiz-adv-x="352" 
d="M329 327l-18 -73h-287v37c145 130 188 183 188 232c0 34 -17 51 -53 51c-28 0 -51 -9 -67 -27c-9 -10 -9 -10 -18 -34c-2 -5 -3 -6 -10 -6h-8c-8 0 -9 0 -11 10l-9 31c-1 7 -2 11 -2 11c0 6 14 27 26 37c33 30 76 46 122 46c79 0 128 -41 128 -106
c0 -38 -16 -70 -55 -108c-18 -18 -58 -52 -117 -101h191z" />
    <glyph glyph-name="registered" unicode="&#xae;" horiz-adv-x="766" 
d="M230 148v358c86 1 130 2 132 2c61 0 88 -4 112 -18c31 -18 48 -46 48 -81c0 -47 -29 -80 -86 -99c45 -91 81 -129 123 -129h4l2 -3l-6 -26c-1 -7 -19 -11 -51 -11c-63 0 -101 36 -159 153h-17h-14v-146h-88zM318 460v-118c18 -1 26 -1 32 -1c54 0 80 20 80 63
s-22 56 -87 56h-13h-12zM388 645c181 0 333 -150 333 -328c0 -181 -151 -328 -338 -328c-188 0 -338 147 -338 330c0 181 153 326 343 326zM387 579c-81 0 -148 -29 -201 -87c-43 -47 -68 -110 -68 -174c0 -149 117 -268 265 -268c146 0 265 119 265 266
c0 144 -118 263 -261 263z" />
    <glyph glyph-name="minus" unicode="&#x2212;" horiz-adv-x="556" 
d="M74 358h407c18 0 19 -1 19 -21v-40c0 -20 -1 -21 -25 -21h-401c-17 0 -19 2 -19 21v40c0 19 2 21 19 21z" />
    <glyph glyph-name="eth" unicode="&#xf0;" horiz-adv-x="555" 
d="M235 650l74 40c16 -24 23 -36 42 -69l83 45l29 -50l-80 -43c100 -163 143 -273 143 -364c0 -130 -105 -222 -254 -222s-242 86 -242 222c0 135 106 224 267 224c20 0 37 -2 59 -6c-12 27 -35 72 -51 99l-79 -41l-28 50l78 41c-19 35 -27 50 -41 74zM274 357
c-68 0 -107 -47 -107 -127c0 -99 50 -167 121 -167c62 0 100 48 100 127c0 97 -48 167 -114 167z" />
    <glyph glyph-name="multiply" unicode="&#xd7;" horiz-adv-x="556" 
d="M220 317l-123 123c-6 7 -9 10 -9 13s3 8 11 15l28 29c11 10 12 11 16 11c2 0 7 -4 17 -14l118 -119l123 123c8 8 10 10 13 10s4 -1 15 -11l29 -29c6 -5 10 -12 10 -15s-4 -8 -13 -17l-119 -119l123 -122c6 -6 9 -11 9 -13c0 -3 -4 -10 -10 -16l-29 -28
c-6 -7 -12 -11 -16 -11c-2 0 -5 2 -12 10l-123 122l-122 -122c-8 -8 -11 -10 -13 -10c-3 0 -9 4 -16 11l-29 28c-8 9 -10 11 -10 15c0 3 2 7 9 14z" />
    <glyph glyph-name="threesuperior" unicode="&#xb3;" horiz-adv-x="352" 
d="M99 422l-12 40c67 27 74 30 89 41c13 10 20 26 20 43c0 24 -15 37 -44 37c-36 0 -65 -15 -77 -40c-2 -4 -4 -5 -10 -5h-7c-9 0 -11 1 -12 9l-7 30c-2 6 -2 6 -2 8c0 5 6 11 21 22c33 24 69 35 117 35c71 0 115 -31 115 -81c0 -32 -17 -54 -62 -80c59 -15 88 -47 88 -98
c0 -39 -22 -79 -55 -103c-29 -21 -72 -33 -121 -33c-52 0 -87 12 -112 37c-10 12 -12 16 -12 31c0 13 1 16 6 19l26 13c7 4 10 5 17 5h10c8 0 9 -1 11 -6c9 -28 33 -44 67 -44c40 0 66 26 66 66c0 42 -22 62 -66 62c-16 0 -29 -2 -54 -8z" />
    <glyph glyph-name="copyright" unicode="&#xa9;" horiz-adv-x="766" 
d="M545 477l-4 -35c-1 -8 -2 -10 -5 -12l-5 -3l-5 -1s-1 0 -2 1c-32 14 -75 23 -113 23c-66 0 -103 -45 -103 -124c0 -86 44 -140 113 -140c30 0 73 10 94 23c8 4 10 5 12 5c1 0 2 0 4 -1l5 -3c4 -2 4 -2 4 -12l-6 -41c-1 -5 -3 -8 -9 -10c-22 -8 -79 -16 -114 -16
c-122 0 -202 71 -202 180c0 117 87 192 222 192c38 0 60 -3 103 -13c8 -2 11 -4 11 -10v-3zM388 645c181 0 333 -150 333 -328c0 -181 -151 -328 -338 -328c-188 0 -338 147 -338 330c0 181 153 326 343 326zM387 579c-81 0 -148 -29 -201 -87c-43 -47 -68 -110 -68 -174
c0 -149 117 -268 265 -268c146 0 265 119 265 266c0 144 -118 263 -261 263z" />
    <glyph glyph-name="Aacute" unicode="&#xc1;" horiz-adv-x="667" 
d="M303 634h103l261 -634h-153l-70 189h-246l-76 -189h-122zM415 264l-89 240l-97 -240h186zM416 869l102 -45l-4 -28l-198 -113l-57 17z" />
    <glyph glyph-name="Acircumflex" unicode="&#xc2;" horiz-adv-x="667" 
d="M303 634h103l261 -634h-153l-70 189h-246l-76 -189h-122zM415 264l-89 240l-97 -240h186zM315 865h67l146 -167l-47 -26l-133 93l-133 -93l-47 26z" />
    <glyph glyph-name="Adieresis" unicode="&#xc4;" horiz-adv-x="667" 
d="M303 634h103l261 -634h-153l-70 189h-246l-76 -189h-122zM415 264l-89 240l-97 -240h186zM248 821c33 0 60 -27 60 -61c0 -33 -27 -60 -61 -60c-33 0 -60 28 -60 60c0 34 27 61 61 61zM453 822c33 0 61 -28 61 -61c0 -34 -28 -61 -62 -61c-32 0 -60 28 -60 61
s27 61 61 61z" />
    <glyph glyph-name="Agrave" unicode="&#xc0;" horiz-adv-x="667" 
d="M303 634h103l261 -634h-153l-70 189h-246l-76 -189h-122zM415 264l-89 240l-97 -240h186zM265 869l157 -169l-57 -17l-198 113l-4 28z" />
    <glyph glyph-name="Aring" unicode="&#xc5;" horiz-adv-x="667" 
d="M303 634h103l261 -634h-153l-70 189h-246l-76 -189h-122zM415 264l-89 240l-97 -240h186zM356 891c68 0 123 -51 123 -113c0 -63 -54 -112 -125 -112c-66 0 -121 50 -121 111c0 63 55 114 123 114zM356 839c-30 0 -52 -26 -52 -62c0 -35 23 -62 53 -62s51 26 51 62
s-22 62 -52 62z" />
    <glyph glyph-name="Atilde" unicode="&#xc3;" horiz-adv-x="667" 
d="M303 634h103l261 -634h-153l-70 189h-246l-76 -189h-122zM415 264l-89 240l-97 -240h186zM485 827h6l40 -20c-21 -75 -64 -117 -122 -117c-24 0 -38 4 -79 22c-26 11 -39 15 -52 15c-24 0 -38 -10 -49 -37h-6l-42 21c29 80 67 115 124 115c22 0 35 -4 83 -24
c23 -10 34 -13 47 -13c23 0 36 9 50 38z" />
    <glyph glyph-name="Ccedilla" unicode="&#xc7;" horiz-adv-x="648" 
d="M424 -12l-22 -36v-9c35 -15 52 -36 52 -63c0 -57 -67 -112 -135 -112c-37 0 -75 20 -75 40c0 3 1 5 4 8l34 30h13c14 -17 29 -25 46 -25c16 0 27 10 27 24c0 17 -13 28 -62 53v25l49 66c-59 4 -97 13 -139 30c-114 48 -184 158 -184 288c0 206 154 339 394 339
c64 0 160 -13 191 -26c8 -4 11 -10 10 -20l-7 -62c-1 -6 -1 -7 -8 -10l-10 -6c-2 -1 -5 -2 -7 -2s-2 0 -21 9c-48 22 -124 38 -183 38c-137 0 -213 -84 -213 -236c0 -160 90 -265 227 -265c65 0 131 18 185 52c2 1 4 2 5 2c2 0 4 -1 7 -3l10 -5c7 -4 7 -4 7 -8l-1 -8
l-10 -63c-2 -12 -4 -14 -21 -19c-51 -14 -105 -23 -163 -26z" />
    <glyph glyph-name="Eacute" unicode="&#xc9;" horiz-adv-x="574" 
d="M78 634h461v-79h-322v-182h288v-79h-288v-210h333v-84h-472v634zM369 869l102 -45l-4 -28l-198 -113l-57 17z" />
    <glyph glyph-name="Ecircumflex" unicode="&#xca;" horiz-adv-x="574" 
d="M78 634h461v-79h-322v-182h288v-79h-288v-210h333v-84h-472v634zM270 865h67l146 -167l-47 -26l-133 93l-133 -93l-47 26z" />
    <glyph glyph-name="Edieresis" unicode="&#xcb;" horiz-adv-x="574" 
d="M78 634h461v-79h-322v-182h288v-79h-288v-210h333v-84h-472v634zM212 821c33 0 60 -27 60 -61c0 -33 -27 -60 -61 -60c-33 0 -60 28 -60 60c0 34 27 61 61 61zM417 822c33 0 61 -28 61 -61c0 -34 -28 -61 -62 -61c-32 0 -60 28 -60 61s27 61 61 61z" />
    <glyph glyph-name="Egrave" unicode="&#xc8;" horiz-adv-x="574" 
d="M78 634h461v-79h-322v-182h288v-79h-288v-210h333v-84h-472v634zM246 869l157 -169l-57 -17l-198 113l-4 28z" />
    <glyph glyph-name="Iacute" unicode="&#xcd;" horiz-adv-x="296" 
d="M78 634h139v-634h-139v634zM230 869l102 -45l-4 -28l-198 -113l-57 17z" />
    <glyph glyph-name="Icircumflex" unicode="&#xce;" horiz-adv-x="296" 
d="M79 634h139v-634h-139v634zM115 865h67l124 -167l-46 -26l-111 93l-111 -93l-47 26z" />
    <glyph glyph-name="Idieresis" unicode="&#xcf;" horiz-adv-x="296" 
d="M78 634h139v-634h-139v634zM68 821c33 0 60 -27 60 -61c0 -33 -27 -60 -61 -60c-33 0 -60 28 -60 60c0 34 27 61 61 61zM228 822c33 0 61 -28 61 -61c0 -34 -28 -61 -62 -61c-32 0 -60 28 -60 61s28 61 61 61z" />
    <glyph glyph-name="Igrave" unicode="&#xcc;" horiz-adv-x="296" 
d="M79 634h139v-634h-139v634zM69 869l157 -169l-57 -17l-198 113l-4 28z" />
    <glyph glyph-name="Ntilde" unicode="&#xd1;" horiz-adv-x="759" 
d="M80 634h100l406 -445l-8 445h100l-1 -627l-82 -21l-427 467l8 -453h-100zM523 827h6l40 -20c-21 -75 -64 -117 -122 -117c-24 0 -38 4 -79 22c-26 11 -39 15 -52 15c-24 0 -38 -10 -49 -37h-6l-42 21c29 80 67 115 124 115c22 0 35 -4 83 -24c23 -10 34 -13 47 -13
c23 0 36 9 50 38z" />
    <glyph glyph-name="Oacute" unicode="&#xd3;" horiz-adv-x="796" 
d="M412 646c212 0 352 -129 352 -325c0 -199 -153 -334 -379 -334c-98 0 -183 28 -244 80c-68 58 -108 148 -108 245c0 103 42 189 122 250c76 58 156 84 257 84zM391 567c-127 0 -212 -97 -212 -243c0 -149 97 -258 229 -258c48 0 95 17 132 47c52 44 78 107 78 191
c0 92 -34 172 -94 217c-38 29 -88 46 -133 46zM480 869l102 -45l-4 -28l-198 -113l-57 17z" />
    <glyph glyph-name="Ocircumflex" unicode="&#xd4;" horiz-adv-x="796" 
d="M412 646c212 0 352 -129 352 -325c0 -199 -153 -334 -379 -334c-98 0 -183 28 -244 80c-68 58 -108 148 -108 245c0 103 42 189 122 250c76 58 156 84 257 84zM391 567c-127 0 -212 -97 -212 -243c0 -149 97 -258 229 -258c48 0 95 17 132 47c52 44 78 107 78 191
c0 92 -34 172 -94 217c-38 29 -88 46 -133 46zM365 865h67l146 -167l-47 -26l-133 93l-133 -93l-47 26z" />
    <glyph glyph-name="Odieresis" unicode="&#xd6;" horiz-adv-x="796" 
d="M412 646c212 0 352 -129 352 -325c0 -199 -153 -334 -379 -334c-98 0 -183 28 -244 80c-68 58 -108 148 -108 245c0 103 42 189 122 250c76 58 156 84 257 84zM391 567c-127 0 -212 -97 -212 -243c0 -149 97 -258 229 -258c48 0 95 17 132 47c52 44 78 107 78 191
c0 92 -34 172 -94 217c-38 29 -88 46 -133 46zM296 821c33 0 60 -27 60 -61c0 -33 -27 -60 -61 -60c-33 0 -60 28 -60 60c0 34 27 61 61 61zM501 822c33 0 61 -28 61 -61c0 -34 -28 -61 -62 -61c-32 0 -60 28 -60 61s27 61 61 61z" />
    <glyph glyph-name="Ograve" unicode="&#xd2;" horiz-adv-x="796" 
d="M412 646c212 0 352 -129 352 -325c0 -199 -153 -334 -379 -334c-98 0 -183 28 -244 80c-68 58 -108 148 -108 245c0 103 42 189 122 250c76 58 156 84 257 84zM391 567c-127 0 -212 -97 -212 -243c0 -149 97 -258 229 -258c48 0 95 17 132 47c52 44 78 107 78 191
c0 92 -34 172 -94 217c-38 29 -88 46 -133 46zM319 869l157 -169l-57 -17l-198 113l-4 28z" />
    <glyph glyph-name="Otilde" unicode="&#xd5;" horiz-adv-x="796" 
d="M412 646c212 0 352 -129 352 -325c0 -199 -153 -334 -379 -334c-98 0 -183 28 -244 80c-68 58 -108 148 -108 245c0 103 42 189 122 250c76 58 156 84 257 84zM391 567c-127 0 -212 -97 -212 -243c0 -149 97 -258 229 -258c48 0 95 17 132 47c52 44 78 107 78 191
c0 92 -34 172 -94 217c-38 29 -88 46 -133 46zM533 827h6l40 -20c-21 -75 -64 -117 -122 -117c-24 0 -38 4 -79 22c-26 11 -39 15 -52 15c-24 0 -38 -10 -49 -37h-6l-42 21c29 80 67 115 124 115c22 0 35 -4 83 -24c23 -10 34 -13 47 -13c23 0 36 9 50 38z" />
    <glyph glyph-name="Scaron" unicode="&#x160;" horiz-adv-x="519" 
d="M453 609l7 -59l1 -9c0 -3 -1 -4 -7 -7l-23 -12c-6 -3 -6 -3 -8 -3c-3 0 -4 0 -19 11c-33 21 -87 37 -130 37c-66 0 -108 -31 -108 -80c0 -23 10 -44 28 -57s40 -24 107 -54c93 -43 108 -51 137 -78c30 -28 48 -69 48 -112c0 -113 -109 -198 -253 -198
c-51 0 -139 12 -180 24c-13 4 -15 6 -16 18l-8 69c-1 5 -1 8 -1 9c0 3 2 6 6 8l24 13c2 1 6 3 7 3s4 -1 6 -3c46 -33 120 -58 175 -58c69 0 114 34 114 87c0 21 -8 40 -24 53c-17 14 -35 23 -100 51c-84 37 -120 57 -150 86c-28 27 -46 70 -46 113c0 111 103 185 255 185
c46 0 125 -11 148 -21c7 -3 8 -6 10 -16zM310 683h-67l-147 167l47 26l133 -93l133 93l47 -26z" />
    <glyph glyph-name="Uacute" unicode="&#xda;" horiz-adv-x="722" 
d="M79 634h139v-378c0 -61 1 -70 5 -88c15 -55 67 -85 149 -85c64 0 120 21 149 57c25 30 29 54 29 161v333h102l-8 -330c-4 -152 -21 -204 -85 -253c-55 -43 -126 -63 -222 -63c-93 0 -158 20 -203 63c-43 42 -55 83 -55 199v384zM447 869l102 -45l-4 -28l-198 -113l-57 17
z" />
    <glyph glyph-name="Ucircumflex" unicode="&#xdb;" horiz-adv-x="722" 
d="M79 634h139v-378c0 -61 1 -70 5 -88c15 -55 67 -85 149 -85c64 0 120 21 149 57c25 30 29 54 29 161v333h102l-8 -330c-4 -152 -21 -204 -85 -253c-55 -43 -126 -63 -222 -63c-93 0 -158 20 -203 63c-43 42 -55 83 -55 199v384zM343 865h67l146 -167l-47 -26l-133 93
l-133 -93l-47 26z" />
    <glyph glyph-name="Udieresis" unicode="&#xdc;" horiz-adv-x="722" 
d="M79 634h139v-378c0 -61 1 -70 5 -88c15 -55 67 -85 149 -85c64 0 120 21 149 57c25 30 29 54 29 161v333h102l-8 -330c-4 -152 -21 -204 -85 -253c-55 -43 -126 -63 -222 -63c-93 0 -158 20 -203 63c-43 42 -55 83 -55 199v384zM274 821c33 0 60 -27 60 -61
c0 -33 -27 -60 -61 -60c-33 0 -60 28 -60 60c0 34 27 61 61 61zM479 822c33 0 61 -28 61 -61c0 -34 -28 -61 -62 -61c-32 0 -60 28 -60 61s27 61 61 61z" />
    <glyph glyph-name="Ugrave" unicode="&#xd9;" horiz-adv-x="722" 
d="M79 634h139v-378c0 -61 1 -70 5 -88c15 -55 67 -85 149 -85c64 0 120 21 149 57c25 30 29 54 29 161v333h102l-8 -330c-4 -152 -21 -204 -85 -253c-55 -43 -126 -63 -222 -63c-93 0 -158 20 -203 63c-43 42 -55 83 -55 199v384zM297 869l157 -169l-57 -17l-198 113l-4 28
z" />
    <glyph glyph-name="Yacute" unicode="&#xdd;" horiz-adv-x="556" 
d="M-28 634h166l159 -270l155 270h134l-246 -354v-280h-139v276zM361 869l102 -45l-4 -28l-198 -113l-57 17z" />
    <glyph glyph-name="Ydieresis" unicode="&#x178;" horiz-adv-x="556" 
d="M-25 634h166l159 -270l155 270h134l-246 -354v-280h-139v276zM191 821c33 0 60 -27 60 -61c0 -33 -27 -60 -61 -60c-33 0 -60 28 -60 60c0 34 27 61 61 61zM396 822c33 0 61 -28 61 -61c0 -34 -28 -61 -62 -61c-32 0 -60 28 -60 61s27 61 61 61z" />
    <glyph glyph-name="Zcaron" unicode="&#x17d;" horiz-adv-x="574" 
d="M31 634h536v-54l-377 -496h379l-15 -84h-546v56l377 494h-354v84zM333 683h-67l-147 167l47 26l133 -93l133 93l47 -26z" />
    <glyph glyph-name="aacute" unicode="&#xe1;" 
d="M59 305l-3 60c1 12 1 13 8 17c44 30 125 51 193 51c62 0 108 -15 135 -45c20 -22 26 -45 26 -101v-20l-3 -151v-5c0 -25 5 -32 23 -32c17 0 37 4 64 14l4 -3v-48c0 -11 -2 -14 -13 -19c-35 -19 -88 -33 -122 -33s-52 11 -68 40c-82 -31 -119 -40 -162 -40
c-69 0 -111 46 -111 122c0 92 38 113 262 141c0 57 -1 63 -7 74c-8 15 -30 23 -62 23c-55 0 -95 -17 -129 -54zM292 94v95c-30 -4 -82 -13 -100 -17c-33 -7 -40 -15 -40 -46c0 -34 14 -47 53 -47c24 0 35 2 81 13zM302 654l102 -29v-27l-172 -133l-56 9z" />
    <glyph glyph-name="acircumflex" unicode="&#xe2;" 
d="M59 305l-3 60c1 12 1 13 8 17c44 30 125 51 193 51c62 0 108 -15 135 -45c20 -22 26 -45 26 -101v-20l-3 -151v-5c0 -25 5 -32 23 -32c17 0 37 4 64 14l4 -3v-48c0 -11 -2 -14 -13 -19c-35 -19 -88 -33 -122 -33s-52 11 -68 40c-82 -31 -119 -40 -162 -40
c-69 0 -111 46 -111 122c0 92 38 113 262 141c0 57 -1 63 -7 74c-8 15 -30 23 -62 23c-55 0 -95 -17 -129 -54zM292 94v95c-30 -4 -82 -13 -100 -17c-33 -7 -40 -15 -40 -46c0 -34 14 -47 53 -47c24 0 35 2 81 13zM215 644h70l111 -170l-43 -19l-103 87l-103 -87l-43 19z
" />
    <glyph glyph-name="adieresis" unicode="&#xe4;" 
d="M59 305l-3 60c1 12 1 13 8 17c44 30 125 51 193 51c62 0 108 -15 135 -45c20 -22 26 -45 26 -101v-20l-3 -151v-5c0 -25 5 -32 23 -32c17 0 37 4 64 14l4 -3v-48c0 -11 -2 -14 -13 -19c-35 -19 -88 -33 -122 -33s-52 11 -68 40c-82 -31 -119 -40 -162 -40
c-69 0 -111 46 -111 122c0 92 38 113 262 141c0 57 -1 63 -7 74c-8 15 -30 23 -62 23c-55 0 -95 -17 -129 -54zM292 94v95c-30 -4 -82 -13 -100 -17c-33 -7 -40 -15 -40 -46c0 -34 14 -47 53 -47c24 0 35 2 81 13zM151 609c32 0 59 -27 59 -59c0 -33 -27 -59 -60 -59
c-31 0 -58 27 -58 59s27 59 59 59zM350 609c32 0 59 -27 59 -59c0 -33 -27 -59 -60 -59c-31 0 -58 27 -58 59s27 59 59 59z" />
    <glyph glyph-name="agrave" unicode="&#xe0;" 
d="M59 305l-3 60c1 12 1 13 8 17c44 30 125 51 193 51c62 0 108 -15 135 -45c20 -22 26 -45 26 -101v-20l-3 -151v-5c0 -25 5 -32 23 -32c17 0 37 4 64 14l4 -3v-48c0 -11 -2 -14 -13 -19c-35 -19 -88 -33 -122 -33s-52 11 -68 40c-82 -31 -119 -40 -162 -40
c-69 0 -111 46 -111 122c0 92 38 113 262 141c0 57 -1 63 -7 74c-8 15 -30 23 -62 23c-55 0 -95 -17 -129 -54zM292 94v95c-30 -4 -82 -13 -100 -17c-33 -7 -40 -15 -40 -46c0 -34 14 -47 53 -47c24 0 35 2 81 13zM210 654l126 -180l-56 -9l-172 133v27z" />
    <glyph glyph-name="aring" unicode="&#xe5;" 
d="M59 305l-3 60c1 12 1 13 8 17c44 30 125 51 193 51c62 0 108 -15 135 -45c20 -22 26 -45 26 -101v-20l-3 -151v-5c0 -25 5 -32 23 -32c17 0 37 4 64 14l4 -3v-48c0 -11 -2 -14 -13 -19c-35 -19 -88 -33 -122 -33s-52 11 -68 40c-82 -31 -119 -40 -162 -40
c-69 0 -111 46 -111 122c0 92 38 113 262 141c0 57 -1 63 -7 74c-8 15 -30 23 -62 23c-55 0 -95 -17 -129 -54zM292 94v95c-30 -4 -82 -13 -100 -17c-33 -7 -40 -15 -40 -46c0 -34 14 -47 53 -47c24 0 35 2 81 13zM251 692c66 0 119 -49 119 -110c0 -62 -52 -109 -121 -109
c-65 0 -118 49 -118 109c0 61 53 110 120 110zM250 642c-28 0 -50 -26 -50 -60c0 -35 23 -61 52 -61s49 25 49 61c0 34 -22 60 -51 60z" />
    <glyph glyph-name="atilde" unicode="&#xe3;" 
d="M59 305l-3 60c1 12 1 13 8 17c44 30 125 51 193 51c62 0 108 -15 135 -45c20 -22 26 -45 26 -101v-20l-3 -151v-5c0 -25 5 -32 23 -32c17 0 37 4 64 14l4 -3v-48c0 -11 -2 -14 -13 -19c-35 -19 -88 -33 -122 -33s-52 11 -68 40c-82 -31 -119 -40 -162 -40
c-69 0 -111 46 -111 122c0 92 38 113 262 141c0 57 -1 63 -7 74c-8 15 -30 23 -62 23c-55 0 -95 -17 -129 -54zM292 94v95c-30 -4 -82 -13 -100 -17c-33 -7 -40 -15 -40 -46c0 -34 14 -47 53 -47c24 0 35 2 81 13zM370 637h5l37 -26c-18 -76 -59 -119 -112 -119
c-23 0 -35 5 -73 30c-25 16 -36 21 -49 21c-22 0 -35 -15 -45 -51h-5l-39 27c26 81 62 118 114 118c21 0 29 -3 77 -33c22 -14 32 -18 43 -18c22 0 33 13 47 51z" />
    <glyph glyph-name="ccedilla" unicode="&#xe7;" horiz-adv-x="426" 
d="M376 312h-21c-36 22 -62 30 -103 30c-67 0 -96 -33 -96 -111c0 -98 41 -148 120 -148c42 0 83 11 123 33l9 -5v-44c0 -12 -2 -15 -14 -23c-27 -20 -72 -39 -111 -48l-25 -42v-9c34 -14 51 -35 51 -62c0 -54 -65 -108 -131 -108c-36 0 -72 20 -72 39c0 4 1 5 4 8l33 29h12
c14 -16 29 -24 45 -24c15 0 26 10 26 23c0 17 -11 26 -60 52v24l46 62c-112 3 -182 79 -182 196c0 145 110 249 265 249c48 0 95 -12 117 -31c6 -5 7 -8 7 -23c0 -13 -1 -16 -7 -24z" />
    <glyph glyph-name="eacute" unicode="&#xe9;" horiz-adv-x="463" 
d="M441 201l-279 -19c9 -71 42 -103 109 -103c49 0 99 14 143 41l7 -2l17 -50c1 0 1 -3 1 -4c0 -5 -3 -8 -15 -16c-55 -36 -134 -60 -199 -60c-123 0 -195 77 -195 208c0 72 25 137 70 180c40 39 90 57 154 57c78 0 130 -29 161 -91c17 -36 25 -76 26 -141zM161 250l140 11
c-1 39 -4 54 -12 69c-11 21 -29 33 -52 33c-44 0 -72 -41 -76 -113zM283 654l102 -29v-27l-172 -133l-56 9z" />
    <glyph glyph-name="ecircumflex" unicode="&#xea;" horiz-adv-x="463" 
d="M441 201l-279 -19c9 -71 42 -103 109 -103c49 0 99 14 143 41l7 -2l17 -50c1 0 1 -3 1 -4c0 -5 -3 -8 -15 -16c-55 -36 -134 -60 -199 -60c-123 0 -195 77 -195 208c0 72 25 137 70 180c40 39 90 57 154 57c78 0 130 -29 161 -91c17 -36 25 -76 26 -141zM161 250l140 11
c-1 39 -4 54 -12 69c-11 21 -29 33 -52 33c-44 0 -72 -41 -76 -113zM207 644h70l111 -170l-43 -19l-103 87l-103 -87l-43 19z" />
    <glyph glyph-name="edieresis" unicode="&#xeb;" horiz-adv-x="463" 
d="M441 201l-279 -19c9 -71 42 -103 109 -103c49 0 99 14 143 41l7 -2l17 -50c1 0 1 -3 1 -4c0 -5 -3 -8 -15 -16c-55 -36 -134 -60 -199 -60c-123 0 -195 77 -195 208c0 72 25 137 70 180c40 39 90 57 154 57c78 0 130 -29 161 -91c17 -36 25 -76 26 -141zM161 250l140 11
c-1 39 -4 54 -12 69c-11 21 -29 33 -52 33c-44 0 -72 -41 -76 -113zM146 609c32 0 59 -27 59 -59c0 -33 -27 -59 -60 -59c-31 0 -58 27 -58 59s27 59 59 59zM345 609c32 0 59 -27 59 -59c0 -33 -27 -59 -60 -59c-31 0 -58 27 -58 59s27 59 59 59z" />
    <glyph glyph-name="egrave" unicode="&#xe8;" horiz-adv-x="463" 
d="M441 201l-279 -19c9 -71 42 -103 109 -103c49 0 99 14 143 41l7 -2l17 -50c1 0 1 -3 1 -4c0 -5 -3 -8 -15 -16c-55 -36 -134 -60 -199 -60c-123 0 -195 77 -195 208c0 72 25 137 70 180c40 39 90 57 154 57c78 0 130 -29 161 -91c17 -36 25 -76 26 -141zM161 250l140 11
c-1 39 -4 54 -12 69c-11 21 -29 33 -52 33c-44 0 -72 -41 -76 -113zM197 654l126 -180l-56 -9l-172 133v27z" />
    <glyph glyph-name="iacute" unicode="&#xed;" horiz-adv-x="241" 
d="M56 422h129v-422h-129v422zM172 654l103 -23l2 -27l-165 -142l-56 6z" />
    <glyph glyph-name="icircumflex" unicode="&#xee;" horiz-adv-x="241" 
d="M56 422h128v-422h-128v422zM86 644h69l95 -170l-44 -19l-86 87l-86 -87l-43 19z" />
    <glyph glyph-name="idieresis" unicode="&#xef;" horiz-adv-x="241" 
d="M56 422h129v-422h-129v422zM43 609c32 0 59 -27 59 -59c0 -33 -27 -59 -60 -59c-31 0 -58 27 -58 59s27 59 59 59zM197 609c32 0 59 -27 59 -59c0 -33 -27 -59 -60 -59c-31 0 -58 27 -58 59s27 59 59 59z" />
    <glyph glyph-name="igrave" unicode="&#xec;" horiz-adv-x="241" 
d="M56 422h128v-422h-128v422zM69 654l116 -186l-57 -6l-164 142l1 27z" />
    <glyph glyph-name="ntilde" unicode="&#xf1;" horiz-adv-x="537" 
d="M56 422h129l-2 -51c63 41 121 62 171 62s89 -21 111 -57c15 -26 17 -42 17 -117v-259h-128v230c0 45 -1 63 -6 75c-8 19 -24 29 -51 29c-34 0 -69 -14 -112 -44v-290h-129v422zM399 637h5l37 -26c-18 -76 -59 -119 -112 -119c-23 0 -35 5 -73 30c-25 16 -36 21 -49 21
c-22 0 -35 -15 -45 -51h-5l-39 27c26 81 62 118 114 118c21 0 29 -3 77 -33c22 -14 32 -18 43 -18c22 0 33 13 47 51z" />
    <glyph glyph-name="oacute" unicode="&#xf3;" horiz-adv-x="555" 
d="M298 433c136 0 228 -89 228 -221c0 -133 -104 -225 -254 -225c-148 0 -242 86 -242 222c0 135 106 224 268 224zM274 357c-68 0 -107 -47 -107 -127c0 -99 50 -167 121 -167c62 0 100 48 100 127c0 97 -48 167 -114 167zM329 654l102 -29v-27l-172 -133l-56 9z" />
    <glyph glyph-name="ocircumflex" unicode="&#xf4;" horiz-adv-x="555" 
d="M298 433c136 0 228 -89 228 -221c0 -133 -104 -225 -254 -225c-148 0 -242 86 -242 222c0 135 106 224 268 224zM274 357c-68 0 -107 -47 -107 -127c0 -99 50 -167 121 -167c62 0 100 48 100 127c0 97 -48 167 -114 167zM243 644h70l111 -170l-43 -19l-103 87l-103 -87
l-43 19z" />
    <glyph glyph-name="odieresis" unicode="&#xf6;" horiz-adv-x="555" 
d="M298 433c136 0 228 -89 228 -221c0 -133 -104 -225 -254 -225c-148 0 -242 86 -242 222c0 135 106 224 268 224zM274 357c-68 0 -107 -47 -107 -127c0 -99 50 -167 121 -167c62 0 100 48 100 127c0 97 -48 167 -114 167zM178 609c32 0 59 -27 59 -59
c0 -33 -27 -59 -60 -59c-31 0 -58 27 -58 59s27 59 59 59zM377 609c32 0 59 -27 59 -59c0 -33 -27 -59 -60 -59c-31 0 -58 27 -58 59s27 59 59 59z" />
    <glyph glyph-name="ograve" unicode="&#xf2;" horiz-adv-x="555" 
d="M298 433c136 0 228 -89 228 -221c0 -133 -104 -225 -254 -225c-148 0 -242 86 -242 222c0 135 106 224 268 224zM274 357c-68 0 -107 -47 -107 -127c0 -99 50 -167 121 -167c62 0 100 48 100 127c0 97 -48 167 -114 167zM227 654l126 -180l-56 -9l-172 133v27z" />
    <glyph glyph-name="otilde" unicode="&#xf5;" horiz-adv-x="555" 
d="M298 433c136 0 228 -89 228 -221c0 -133 -104 -225 -254 -225c-148 0 -242 86 -242 222c0 135 106 224 268 224zM274 357c-68 0 -107 -47 -107 -127c0 -99 50 -167 121 -167c62 0 100 48 100 127c0 97 -48 167 -114 167zM403 637h5l37 -26c-18 -76 -59 -119 -112 -119
c-23 0 -35 5 -73 30c-25 16 -36 21 -49 21c-22 0 -35 -15 -45 -51h-5l-39 27c26 81 62 118 114 118c21 0 29 -3 77 -33c22 -14 32 -18 43 -18c22 0 33 13 47 51z" />
    <glyph glyph-name="scaron" unicode="&#x161;" horiz-adv-x="426" 
d="M368 338l-32 -15c-40 24 -74 34 -116 34c-41 0 -62 -13 -62 -40c0 -24 6 -28 90 -53c112 -33 150 -66 150 -129c0 -87 -81 -145 -203 -145c-40 0 -120 11 -148 21c-6 2 -7 4 -8 13l-10 71l33 15c39 -29 86 -44 144 -44c42 0 69 17 69 45c0 25 -9 30 -86 53
c-67 19 -82 25 -106 42c-28 20 -43 50 -43 86c0 86 76 138 199 138c38 0 95 -6 114 -13c7 -2 7 -3 8 -15zM253 472h-70l-111 170l43 19l103 -88l103 88l43 -19z" />
    <glyph glyph-name="uacute" unicode="&#xfa;" horiz-adv-x="537" 
d="M481 422v-422h-124l2 44c-51 -34 -112 -54 -165 -54s-96 20 -118 55c-16 27 -21 56 -21 139v238h129v-237c0 -45 2 -60 9 -73c9 -17 27 -27 50 -27c31 0 72 14 110 38v299h128zM320 654l102 -29v-27l-172 -133l-56 9z" />
    <glyph glyph-name="ucircumflex" unicode="&#xfb;" horiz-adv-x="537" 
d="M481 422v-422h-124l2 44c-51 -34 -112 -54 -165 -54s-96 20 -118 55c-16 27 -21 56 -21 139v238h129v-237c0 -45 2 -60 9 -73c9 -17 27 -27 50 -27c31 0 72 14 110 38v299h128zM233 644h70l111 -170l-43 -19l-103 87l-103 -87l-43 19z" />
    <glyph glyph-name="udieresis" unicode="&#xfc;" horiz-adv-x="537" 
d="M481 422v-422h-124l2 44c-51 -34 -112 -54 -165 -54s-96 20 -118 55c-16 27 -21 56 -21 139v238h129v-237c0 -45 2 -60 9 -73c9 -17 27 -27 50 -27c31 0 72 14 110 38v299h128zM169 609c32 0 59 -27 59 -59c0 -33 -27 -59 -60 -59c-31 0 -58 27 -58 59s27 59 59 59z
M368 609c32 0 59 -27 59 -59c0 -33 -27 -59 -60 -59c-31 0 -58 27 -58 59s27 59 59 59z" />
    <glyph glyph-name="ugrave" unicode="&#xf9;" horiz-adv-x="537" 
d="M481 422v-422h-124l2 44c-51 -34 -112 -54 -165 -54s-96 20 -118 55c-16 27 -21 56 -21 139v238h129v-237c0 -45 2 -60 9 -73c9 -17 27 -27 50 -27c31 0 72 14 110 38v299h128zM217 654l126 -180l-56 -9l-172 133v27z" />
    <glyph glyph-name="yacute" unicode="&#xfd;" horiz-adv-x="444" 
d="M-2 422h147l89 -286l123 286h112l-353 -691l-111 24l155 240zM290 654l102 -29v-27l-172 -133l-56 9z" />
    <glyph glyph-name="ydieresis" unicode="&#xff;" horiz-adv-x="444" 
d="M-2 422h147l89 -286l123 286h112l-353 -691l-111 24l155 240zM139 609c32 0 59 -27 59 -59c0 -33 -27 -59 -60 -59c-31 0 -58 27 -58 59s27 59 59 59zM338 609c32 0 59 -27 59 -59c0 -33 -27 -59 -60 -59c-31 0 -58 27 -58 59s27 59 59 59z" />
    <glyph glyph-name="zcaron" unicode="&#x17e;" horiz-adv-x="426" 
d="M32 422h384v-55l-243 -292h246l-16 -75h-397v54l244 293h-218v75zM259 472h-70l-111 170l43 19l103 -88l103 88l43 -19z" />
    <glyph glyph-name="Abreve" unicode="&#x102;" horiz-adv-x="667" 
d="M303 634h103l261 -634h-153l-70 189h-246l-76 -189h-122zM415 264l-89 240l-97 -240h186zM186 838h63c7 -43 37 -64 92 -64s86 21 92 64h63c1 -7 1 -12 1 -15c0 -84 -63 -142 -156 -142s-155 58 -155 145v12z" />
    <glyph glyph-name="Aogonek" unicode="&#x104;" horiz-adv-x="667" 
d="M303 634h103l261 -634c-43 -49 -60 -80 -60 -110c0 -26 21 -41 56 -41c9 0 23 1 39 4h10l-2 -21c-2 -14 -3 -16 -10 -21c-16 -10 -54 -19 -80 -19c-61 0 -103 36 -103 87c0 40 24 77 78 121h-81l-70 189h-246l-76 -189h-122zM415 264l-89 240l-97 -240h186z" />
    <glyph glyph-name="Cacute" unicode="&#x106;" horiz-adv-x="648" 
d="M627 600l-7 -62c-1 -6 -1 -7 -8 -10l-10 -6c-2 -1 -5 -2 -7 -2s-2 0 -21 9c-48 22 -124 38 -183 38c-136 0 -212 -84 -212 -236c0 -160 90 -265 226 -265c66 0 130 19 185 53c2 1 4 2 5 2c2 0 2 0 7 -3l10 -6c7 -3 7 -4 7 -7c0 -1 0 -1 -2 -8l-9 -64
c-2 -11 -4 -13 -16 -17c-46 -15 -138 -28 -201 -28c-86 0 -160 18 -218 54c-88 55 -140 153 -140 265c0 206 154 339 393 339c64 0 160 -13 191 -26c8 -4 11 -10 10 -20zM474 869l102 -45l-4 -28l-198 -113l-57 17z" />
    <glyph glyph-name="Ccaron" unicode="&#x10c;" horiz-adv-x="648" 
d="M627 600l-7 -62c-1 -6 -1 -7 -8 -10l-10 -6c-2 -1 -5 -2 -7 -2s-2 0 -21 9c-48 22 -124 38 -183 38c-136 0 -212 -84 -212 -236c0 -160 90 -265 226 -265c66 0 130 19 185 53c2 1 4 2 5 2c2 0 2 0 7 -3l10 -6c7 -3 7 -4 7 -7c0 -1 0 -1 -2 -8l-9 -64
c-2 -11 -4 -13 -16 -17c-46 -15 -138 -28 -201 -28c-86 0 -160 18 -218 54c-88 55 -140 153 -140 265c0 206 154 339 393 339c64 0 160 -13 191 -26c8 -4 11 -10 10 -20zM437 683h-67l-147 167l47 26l133 -93l133 93l47 -26z" />
    <glyph glyph-name="Dcaron" unicode="&#x10e;" horiz-adv-x="759" 
d="M78 0v634c165 5 255 7 269 7c118 0 194 -16 255 -53c82 -49 124 -134 124 -249c0 -134 -58 -239 -160 -293c-64 -32 -148 -46 -284 -46h-204zM217 78h108c85 0 144 14 180 42c51 40 75 105 75 203c0 99 -22 158 -74 196c-43 31 -89 43 -171 43l-118 -1v-483zM374 683h-67
l-147 167l47 26l133 -93l133 93l47 -26z" />
    <glyph glyph-name="Ecaron" unicode="&#x11a;" horiz-adv-x="574" 
d="M78 634h461v-79h-322v-182h288v-79h-288v-210h333v-84h-472v634zM343 683h-67l-147 167l47 26l133 -93l133 93l47 -26z" />
    <glyph glyph-name="Edotaccent" unicode="&#x116;" horiz-adv-x="574" 
d="M78 634h461v-79h-322v-182h288v-79h-288v-210h333v-84h-472v634zM308 823c35 0 63 -28 63 -63c0 -34 -28 -62 -63 -62c-34 0 -62 29 -62 62c0 35 28 63 62 63z" />
    <glyph glyph-name="Eogonek" unicode="&#x118;" horiz-adv-x="574" 
d="M78 634h461v-79h-322v-182h288v-79h-288v-210h333v-84c-44 -50 -60 -80 -60 -110c0 -26 21 -41 56 -41c9 0 22 1 39 4h10l-2 -21c-3 -15 -3 -15 -11 -20c-15 -11 -53 -20 -79 -20c-61 0 -103 36 -103 87c0 39 25 78 77 121h-399v634z" />
    <glyph glyph-name="Gbreve" unicode="&#x11e;" horiz-adv-x="722" 
d="M521 315h139v-292c-93 -24 -179 -35 -261 -35c-98 0 -177 20 -237 61c-82 55 -129 149 -129 257c0 202 163 341 399 341c57 0 152 -14 183 -27c10 -4 11 -6 11 -20l4 -64v-4c0 -2 -2 -5 -6 -7l-18 -10c-3 -1 -5 -2 -6 -2c-3 0 -6 2 -20 11c-41 26 -108 44 -166 44
c-146 0 -235 -93 -235 -245c0 -163 88 -257 242 -257c31 0 58 4 100 14v235zM234 838h63c7 -43 37 -64 92 -64s86 21 92 64h63c1 -7 1 -12 1 -15c0 -84 -63 -142 -156 -142s-155 58 -155 145v12z" />
    <glyph glyph-name="Idotaccent" unicode="&#x130;" horiz-adv-x="296" 
d="M78 634h139v-634h-139v634zM147 823c35 0 63 -28 63 -63c0 -34 -28 -62 -63 -62c-34 0 -62 29 -62 62c0 35 28 63 62 63z" />
    <glyph glyph-name="Lacute" unicode="&#x139;" 
d="M78 634h139v-550h294v-84h-433v634zM281 869l102 -45l-4 -28l-198 -113l-57 17z" />
    <glyph glyph-name="Lcaron" unicode="&#x13d;" 
d="M78 634h139v-550h294v-84h-433v634zM317 430v3c42 30 71 64 71 87c0 8 -5 14 -17 20c-27 13 -33 20 -33 44c0 29 25 52 58 52c42 0 72 -35 72 -83c0 -44 -21 -83 -67 -122c-17 -16 -46 -36 -51 -36c-2 0 -2 0 -6 5z" />
    <glyph glyph-name="Nacute" unicode="&#x143;" horiz-adv-x="759" 
d="M80 634h100l406 -445l-8 445h100l-1 -627l-82 -21l-427 467l8 -453h-100zM484 869l102 -45l-4 -28l-198 -113l-57 17z" />
    <glyph glyph-name="Ncaron" unicode="&#x147;" horiz-adv-x="759" 
d="M80 634h100l406 -445l-8 445h100l-1 -627l-82 -21l-427 467l8 -453h-100zM431 683h-67l-147 167l47 26l133 -93l133 93l47 -26z" />
    <glyph glyph-name="Ohungarumlaut" unicode="&#x150;" horiz-adv-x="796" 
d="M412 646c212 0 352 -129 352 -325c0 -199 -153 -334 -379 -334c-98 0 -183 28 -244 80c-68 58 -108 148 -108 245c0 103 42 189 122 250c76 58 156 84 257 84zM391 567c-127 0 -212 -97 -212 -243c0 -149 97 -258 229 -258c48 0 95 17 132 47c52 44 78 107 78 191
c0 92 -34 172 -94 217c-38 29 -88 46 -133 46zM427 863l78 -35l-1 -28l-159 -127l-57 12zM595 863l78 -35l-2 -28l-158 -127l-57 12z" />
    <glyph glyph-name="Racute" unicode="&#x154;" horiz-adv-x="648" 
d="M78 0v634c38 1 73 2 105 2c78 3 103 3 130 3c105 0 151 -8 192 -32c56 -32 84 -81 84 -144c0 -83 -51 -141 -149 -170c45 -97 92 -168 136 -209c22 -20 53 -31 88 -31h4l3 -5l-10 -40c-3 -13 -30 -20 -78 -20c-74 0 -130 30 -181 99c-29 39 -56 88 -101 181
c-16 -1 -36 -2 -51 -2c-12 0 -17 0 -33 1v-267h-139zM217 562v-223c54 -2 65 -2 73 -2c105 0 153 37 153 118c0 47 -19 80 -58 96c-21 9 -45 12 -98 12c-17 0 -42 0 -70 -1zM406 869l102 -45l-4 -28l-198 -113l-57 17z" />
    <glyph glyph-name="Rcaron" unicode="&#x158;" horiz-adv-x="648" 
d="M78 0v634c38 1 73 2 105 2c78 3 103 3 130 3c105 0 151 -8 192 -32c56 -32 84 -81 84 -144c0 -83 -51 -141 -149 -170c45 -97 92 -168 136 -209c22 -20 53 -31 88 -31h4l3 -5l-10 -40c-3 -13 -30 -20 -78 -20c-74 0 -130 30 -181 99c-29 39 -56 88 -101 181
c-16 -1 -36 -2 -51 -2c-12 0 -17 0 -33 1v-267h-139zM217 562v-223c54 -2 65 -2 73 -2c105 0 153 37 153 118c0 47 -19 80 -58 96c-21 9 -45 12 -98 12c-17 0 -42 0 -70 -1zM346 683h-67l-147 167l47 26l133 -93l133 93l47 -26z" />
    <glyph glyph-name="Sacute" unicode="&#x15a;" horiz-adv-x="519" 
d="M453 609l7 -59l1 -9c0 -3 -1 -4 -7 -7l-23 -12c-6 -3 -6 -3 -8 -3c-3 0 -4 0 -19 11c-33 21 -87 37 -130 37c-66 0 -108 -31 -108 -80c0 -23 10 -44 28 -57s40 -24 107 -54c93 -43 108 -51 137 -78c30 -28 48 -69 48 -112c0 -113 -109 -198 -253 -198
c-51 0 -139 12 -180 24c-13 4 -15 6 -16 18l-8 69c-1 5 -1 8 -1 9c0 3 2 6 6 8l24 13c2 1 6 3 7 3s4 -1 6 -3c46 -33 120 -58 175 -58c69 0 114 34 114 87c0 21 -8 40 -24 53c-17 14 -35 23 -100 51c-84 37 -120 57 -150 86c-28 27 -46 70 -46 113c0 111 103 185 255 185
c46 0 125 -11 148 -21c7 -3 8 -6 10 -16zM358 869l102 -45l-4 -28l-198 -113l-57 17z" />
    <glyph glyph-name="Scedilla" unicode="&#x15e;" horiz-adv-x="519" 
d="M294 -7l-24 -41v-9c34 -14 52 -36 52 -64c0 -56 -67 -111 -135 -111c-37 0 -74 20 -74 40c0 4 1 6 3 8l34 30h13c14 -17 29 -25 46 -25c15 0 27 10 27 24c0 17 -13 28 -62 53v25l49 65c-38 0 -93 7 -145 18c-38 8 -41 10 -42 24l-8 69c0 3 0 5 -1 8v1c0 3 1 5 7 8l24 13
c2 2 6 3 7 3s3 -1 6 -3c45 -34 120 -59 175 -59c69 0 114 34 114 87c0 21 -8 40 -24 53c-17 14 -35 24 -100 52c-84 36 -120 56 -150 85c-28 28 -46 71 -46 114c0 111 103 185 255 185c46 0 125 -11 148 -21c7 -3 9 -6 10 -16l7 -59l1 -9c0 -3 -1 -4 -7 -7l-23 -12
c-6 -3 -6 -3 -7 -3c-4 0 -4 0 -20 11c-33 22 -87 37 -130 37c-66 0 -108 -31 -108 -80c0 -24 10 -44 28 -57s39 -24 107 -55c92 -41 108 -50 137 -77c30 -28 48 -70 48 -113c0 -94 -76 -170 -192 -192z" />
    <glyph glyph-name="Scedilla" unicode="&#xf6c1;" horiz-adv-x="519" 
d="M294 -7l-24 -41v-9c34 -14 52 -36 52 -64c0 -56 -67 -111 -135 -111c-37 0 -74 20 -74 40c0 4 1 6 3 8l34 30h13c14 -17 29 -25 46 -25c15 0 27 10 27 24c0 17 -13 28 -62 53v25l49 65c-38 0 -93 7 -145 18c-38 8 -41 10 -42 24l-8 69c0 3 0 5 -1 8v1c0 3 1 5 7 8l24 13
c2 2 6 3 7 3s3 -1 6 -3c45 -34 120 -59 175 -59c69 0 114 34 114 87c0 21 -8 40 -24 53c-17 14 -35 24 -100 52c-84 36 -120 56 -150 85c-28 28 -46 71 -46 114c0 111 103 185 255 185c46 0 125 -11 148 -21c7 -3 9 -6 10 -16l7 -59l1 -9c0 -3 -1 -4 -7 -7l-23 -12
c-6 -3 -6 -3 -7 -3c-4 0 -4 0 -20 11c-33 22 -87 37 -130 37c-66 0 -108 -31 -108 -80c0 -24 10 -44 28 -57s39 -24 107 -55c92 -41 108 -50 137 -77c30 -28 48 -70 48 -113c0 -94 -76 -170 -192 -192z" />
    <glyph glyph-name="Tcaron" unicode="&#x164;" horiz-adv-x="593" 
d="M-22 634h637v-84h-249v-550h-139v550h-249v84zM330 683h-67l-147 167l47 26l133 -93l133 93l47 -26z" />
    <glyph glyph-name="Uring" unicode="&#x16e;" horiz-adv-x="722" 
d="M79 634h139v-378c0 -61 1 -70 5 -88c15 -55 67 -85 149 -85c64 0 120 21 149 57c25 30 29 54 29 161v333h102l-8 -330c-4 -152 -21 -204 -85 -253c-55 -43 -126 -63 -222 -63c-93 0 -158 20 -203 63c-43 42 -55 83 -55 199v384zM384 891c68 0 123 -51 123 -113
c0 -63 -54 -112 -125 -112c-66 0 -121 50 -121 111c0 63 55 114 123 114zM384 839c-30 0 -52 -26 -52 -62c0 -35 23 -62 53 -62s51 26 51 62s-22 62 -52 62z" />
    <glyph glyph-name="Uhungarumlaut" unicode="&#x170;" horiz-adv-x="722" 
d="M79 634h139v-378c0 -61 1 -70 5 -88c15 -55 67 -85 149 -85c64 0 120 21 149 57c25 30 29 54 29 161v333h102l-8 -330c-4 -152 -21 -204 -85 -253c-55 -43 -126 -63 -222 -63c-93 0 -158 20 -203 63c-43 42 -55 83 -55 199v384zM396 863l78 -35l-1 -28l-159 -127l-57 12z
M564 863l78 -35l-2 -28l-158 -127l-57 12z" />
    <glyph glyph-name="Zacute" unicode="&#x179;" horiz-adv-x="574" 
d="M31 634h536v-54l-377 -496h379l-15 -84h-546v56l377 494h-354v84zM381 869l102 -45l-4 -28l-198 -113l-57 17z" />
    <glyph glyph-name="Zdotaccent" unicode="&#x17b;" horiz-adv-x="574" 
d="M31 634h536v-54l-377 -496h379l-15 -84h-546v56l377 494h-354v84zM298 823c35 0 63 -28 63 -63c0 -34 -28 -62 -63 -62c-34 0 -62 29 -62 62c0 35 28 63 62 63z" />
    <glyph glyph-name="Amacron" unicode="&#x100;" horiz-adv-x="667" 
d="M303 634h103l261 -634h-153l-70 189h-246l-76 -189h-122zM415 264l-89 240l-97 -240h186zM207 807h277v-97h-277v97z" />
    <glyph glyph-name="Tcommaaccent" unicode="&#x162;" horiz-adv-x="593" 
d="M-22 634h637v-84h-249v-550h-139v550h-249v84zM218 -253v3c41 28 71 64 71 86c0 8 -5 14 -17 20c-27 13 -33 21 -33 44c0 30 25 52 58 52c42 0 72 -35 72 -83c0 -43 -22 -83 -67 -122c-18 -16 -46 -35 -51 -35c-2 0 -2 0 -6 5z" />
    <glyph glyph-name="Tcommaaccent" unicode="&#x21a;" horiz-adv-x="593" 
d="M-22 634h637v-84h-249v-550h-139v550h-249v84zM218 -253v3c41 28 71 64 71 86c0 8 -5 14 -17 20c-27 13 -33 21 -33 44c0 30 25 52 58 52c42 0 72 -35 72 -83c0 -43 -22 -83 -67 -122c-18 -16 -46 -35 -51 -35c-2 0 -2 0 -6 5z" />
    <glyph glyph-name="Emacron" unicode="&#x112;" horiz-adv-x="574" 
d="M78 634h461v-79h-322v-182h288v-79h-288v-210h333v-84h-472v634zM171 807h277v-97h-277v97z" />
    <glyph glyph-name="Imacron" unicode="&#x12a;" horiz-adv-x="296" 
d="M79 634h139v-634h-139v634zM27 807h243v-97h-243v97z" />
    <glyph glyph-name="Iogonek" unicode="&#x12e;" horiz-adv-x="296" 
d="M78 634h140v-634c-43 -50 -60 -81 -60 -110c0 -26 21 -41 56 -41c9 0 22 1 39 4h10l-3 -21c-1 -14 -2 -16 -10 -21c-16 -10 -53 -19 -79 -19c-62 0 -104 35 -104 87c0 40 23 76 78 121h-67v634z" />
    <glyph glyph-name="Kcommaaccent" unicode="&#x136;" horiz-adv-x="629" 
d="M78 634h139v-634h-139v634zM498 634h151l-280 -270l285 -364h-180l-249 338zM253 -253v3c41 28 71 64 71 86c0 8 -5 14 -17 20c-27 13 -33 21 -33 44c0 30 25 52 58 52c42 0 72 -35 72 -83c0 -43 -22 -83 -67 -122c-18 -16 -46 -35 -51 -35c-2 0 -2 0 -6 5z" />
    <glyph glyph-name="Lcommaaccent" unicode="&#x13b;" 
d="M78 634h139v-550h294v-84h-433v634zM194 -253v3c41 28 71 64 71 86c0 8 -5 14 -17 20c-27 13 -33 21 -33 44c0 30 25 52 58 52c42 0 72 -35 72 -83c0 -43 -22 -83 -67 -122c-18 -16 -46 -35 -51 -35c-2 0 -2 0 -6 5z" />
    <glyph glyph-name="Ncommaaccent" unicode="&#x145;" horiz-adv-x="759" 
d="M80 634h100l406 -445l-8 445h100l-1 -627l-82 -21l-427 467l8 -453h-100zM302 -253v3c41 28 71 64 71 86c0 8 -5 14 -17 20c-27 13 -33 21 -33 44c0 30 25 52 58 52c42 0 72 -35 72 -83c0 -43 -22 -83 -67 -122c-18 -16 -46 -35 -51 -35c-2 0 -2 0 -6 5z" />
    <glyph glyph-name="Omacron" unicode="&#x14c;" horiz-adv-x="796" 
d="M412 646c212 0 352 -129 352 -325c0 -199 -153 -334 -379 -334c-98 0 -183 28 -244 80c-68 58 -108 148 -108 245c0 103 42 189 122 250c76 58 156 84 257 84zM391 567c-127 0 -212 -97 -212 -243c0 -149 97 -258 229 -258c48 0 95 17 132 47c52 44 78 107 78 191
c0 92 -34 172 -94 217c-38 29 -88 46 -133 46zM260 807h277v-97h-277v97z" />
    <glyph glyph-name="Rcommaaccent" unicode="&#x156;" horiz-adv-x="648" 
d="M78 0v634c38 1 73 2 105 2c78 3 103 3 130 3c105 0 151 -8 192 -32c56 -32 84 -81 84 -144c0 -83 -51 -141 -149 -170c45 -97 92 -168 136 -209c22 -20 53 -31 88 -31h4l3 -5l-10 -40c-3 -13 -30 -20 -78 -20c-74 0 -130 30 -181 99c-29 39 -56 88 -101 181
c-16 -1 -36 -2 -51 -2c-12 0 -17 0 -33 1v-267h-139zM217 562v-223c54 -2 65 -2 73 -2c105 0 153 37 153 118c0 47 -19 80 -58 96c-21 9 -45 12 -98 12c-17 0 -42 0 -70 -1zM262 -253v3c41 28 71 64 71 86c0 8 -5 14 -17 20c-27 13 -33 21 -33 44c0 30 25 52 58 52
c42 0 72 -35 72 -83c0 -43 -22 -83 -67 -122c-18 -16 -46 -35 -51 -35c-2 0 -2 0 -6 5z" />
    <glyph glyph-name="Gcommaaccent" unicode="&#x122;" horiz-adv-x="722" 
d="M521 315h139v-292c-93 -24 -179 -35 -261 -35c-98 0 -177 20 -237 61c-82 55 -129 149 -129 257c0 202 163 341 399 341c57 0 152 -14 183 -27c10 -4 11 -6 11 -20l4 -64v-4c0 -2 -2 -5 -6 -7l-18 -10c-3 -1 -5 -2 -6 -2c-3 0 -6 2 -20 11c-41 26 -108 44 -166 44
c-146 0 -235 -93 -235 -245c0 -163 88 -257 242 -257c31 0 58 4 100 14v235zM317 -253v3c41 28 71 64 71 86c0 8 -5 14 -17 20c-27 13 -33 21 -33 44c0 30 25 52 58 52c42 0 72 -35 72 -83c0 -43 -22 -83 -67 -122c-18 -16 -46 -35 -51 -35c-2 0 -2 0 -6 5z" />
    <glyph glyph-name="Umacron" unicode="&#x16a;" horiz-adv-x="722" 
d="M79 634h139v-378c0 -61 1 -70 5 -88c15 -55 67 -85 149 -85c64 0 120 21 149 57c25 30 29 54 29 161v333h102l-8 -330c-4 -152 -21 -204 -85 -253c-55 -43 -126 -63 -222 -63c-93 0 -158 20 -203 63c-43 42 -55 83 -55 199v384zM246 807h277v-97h-277v97z" />
    <glyph glyph-name="Uogonek" unicode="&#x172;" horiz-adv-x="722" 
d="M79 634h139v-378c0 -61 1 -70 5 -88c15 -55 67 -85 149 -85c64 0 120 21 149 57c25 30 29 54 29 161v333h102l-8 -330c-5 -176 -21 -211 -125 -282c-43 -31 -78 -89 -78 -131c0 -27 20 -42 56 -42c9 0 23 1 40 4h10l-3 -21c-2 -13 -3 -16 -10 -21
c-16 -10 -53 -19 -80 -19c-61 0 -103 36 -103 87c0 37 25 77 70 115c-30 -4 -54 -6 -85 -6c-92 0 -157 20 -202 63c-43 42 -55 83 -55 199v384z" />
    <glyph glyph-name="abreve" unicode="&#x103;" 
d="M59 305l-3 60c1 12 1 13 8 17c44 30 125 51 193 51c62 0 108 -15 135 -45c20 -22 26 -45 26 -101v-20l-3 -151v-5c0 -25 5 -32 23 -32c17 0 37 4 64 14l4 -3v-48c0 -11 -2 -14 -13 -19c-35 -19 -88 -33 -122 -33s-52 11 -68 40c-82 -31 -119 -40 -162 -40
c-69 0 -111 46 -111 122c0 92 38 113 262 141c0 57 -1 63 -7 74c-8 15 -30 23 -62 23c-55 0 -95 -17 -129 -54zM292 94v95c-30 -4 -82 -13 -100 -17c-33 -7 -40 -15 -40 -46c0 -34 14 -47 53 -47c24 0 35 2 81 13zM113 626h56c2 -45 29 -67 81 -67s79 23 81 67h55
c1 -7 1 -14 1 -17c0 -82 -55 -138 -137 -138c-83 0 -137 55 -137 141v14z" />
    <glyph glyph-name="aogonek" unicode="&#x105;" 
d="M94 296l-35 9l-3 60c1 12 1 13 8 17c44 30 125 51 193 51c62 0 108 -15 135 -45c20 -22 26 -45 26 -101v-20l-3 -151v-5c0 -25 5 -32 23 -32c17 0 37 4 64 14l4 -3v-48c0 -8 -1 -12 -5 -16c-5 -4 -6 -4 -23 -12c-7 -3 -7 -3 -20 -11c-42 -23 -73 -69 -73 -106
c0 -26 20 -40 55 -40c9 0 20 1 37 3h10l-3 -20c-1 -14 -2 -15 -9 -20c-16 -10 -52 -19 -78 -19c-59 0 -100 35 -100 85c0 34 20 69 61 105c-30 5 -42 14 -55 39c-82 -31 -119 -40 -162 -40c-69 0 -111 46 -111 122c0 92 38 113 262 141c0 57 -1 63 -7 74
c-8 15 -30 23 -62 23c-55 0 -95 -17 -129 -54zM292 94v95c-30 -4 -82 -13 -100 -17c-33 -7 -40 -15 -40 -46c0 -34 14 -47 53 -47c24 0 35 2 81 13z" />
    <glyph glyph-name="cacute" unicode="&#x107;" horiz-adv-x="426" 
d="M376 312h-21c-36 22 -62 30 -103 30c-67 0 -96 -33 -96 -111c0 -98 41 -148 120 -148c42 0 83 11 123 33l9 -5v-45c0 -11 -2 -14 -14 -22c-45 -32 -119 -56 -177 -56c-113 0 -187 77 -187 196c0 145 110 249 265 249c48 0 95 -12 117 -31c6 -5 7 -8 7 -23
c0 -13 -1 -16 -7 -24zM331 654l102 -29v-27l-172 -133l-56 9z" />
    <glyph glyph-name="ccaron" unicode="&#x10d;" horiz-adv-x="426" 
d="M376 312h-21c-36 22 -62 30 -103 30c-67 0 -96 -33 -96 -111c0 -98 41 -148 120 -148c42 0 83 11 123 33l9 -5v-45c0 -11 -2 -14 -14 -22c-45 -32 -119 -56 -177 -56c-113 0 -187 77 -187 196c0 145 110 249 265 249c48 0 95 -12 117 -31c6 -5 7 -8 7 -23
c0 -13 -1 -16 -7 -24zM309 472h-70l-111 170l43 19l103 -88l103 88l43 -19z" />
    <glyph glyph-name="dcaron" unicode="&#x10f;" horiz-adv-x="668" 
d="M372 690h127v-690h-127l2 40c-49 -33 -100 -50 -154 -50c-114 0 -191 77 -191 191c0 138 118 246 269 246c23 0 40 -2 74 -8v271zM372 104v212c-31 14 -60 20 -97 20c-78 0 -114 -36 -114 -116c0 -89 44 -143 117 -143c31 0 62 9 94 27zM533 491v3c40 28 69 62 69 84
c0 8 -5 14 -17 19c-26 13 -32 21 -32 44c0 28 25 50 56 50c41 0 70 -34 70 -81c0 -41 -20 -79 -62 -116c-17 -16 -47 -37 -52 -37c-1 0 -2 0 -6 5z" />
    <glyph glyph-name="ecaron" unicode="&#x11b;" horiz-adv-x="463" 
d="M441 201l-279 -19c9 -71 42 -103 109 -103c49 0 99 14 143 41l7 -2l17 -50c1 0 1 -3 1 -4c0 -5 -3 -8 -15 -16c-55 -36 -134 -60 -199 -60c-123 0 -195 77 -195 208c0 72 25 137 70 180c40 39 90 57 154 57c78 0 130 -29 161 -91c17 -36 25 -76 26 -141zM161 250l140 11
c-1 39 -4 54 -12 69c-11 21 -29 33 -52 33c-44 0 -72 -41 -76 -113zM277 472h-70l-111 170l43 19l103 -88l103 88l43 -19z" />
    <glyph glyph-name="edotaccent" unicode="&#x117;" horiz-adv-x="463" 
d="M441 201l-279 -19c9 -71 42 -103 109 -103c49 0 99 14 143 41l7 -2l17 -50c1 0 1 -3 1 -4c0 -5 -3 -8 -15 -16c-55 -36 -134 -60 -199 -60c-123 0 -195 77 -195 208c0 72 25 137 70 180c40 39 90 57 154 57c78 0 130 -29 161 -91c17 -36 25 -76 26 -141zM161 250l140 11
c-1 39 -4 54 -12 69c-11 21 -29 33 -52 33c-44 0 -72 -41 -76 -113zM246 612c34 0 62 -28 62 -62s-28 -62 -63 -62c-33 0 -61 28 -61 62s28 62 62 62z" />
    <glyph glyph-name="eogonek" unicode="&#x119;" horiz-adv-x="463" 
d="M441 201l-279 -19c9 -71 42 -102 109 -102c49 0 99 14 143 40l7 -2l17 -50c1 0 1 -3 1 -4c0 -10 -21 -23 -84 -53c-39 -19 -79 -77 -79 -115c0 -25 20 -39 55 -39c9 0 22 1 37 3h10l-3 -20c-1 -14 -2 -15 -9 -20c-17 -10 -52 -19 -78 -19c-59 0 -99 34 -99 85
c0 33 18 65 58 102h-20c-45 0 -87 11 -116 29c-50 32 -81 100 -81 180c0 71 25 136 70 179c40 39 90 57 154 57c78 0 130 -29 161 -91c17 -36 25 -76 26 -141zM161 250l140 11c-1 39 -4 54 -12 69c-11 21 -29 33 -52 33c-44 0 -72 -41 -76 -113z" />
    <glyph glyph-name="gbreve" unicode="&#x11f;" horiz-adv-x="518" 
d="M518 421v-75h-94c20 -27 28 -52 28 -87c0 -61 -32 -109 -90 -136c-31 -15 -37 -17 -98 -32c-24 -6 -24 -6 -53 -14c-12 -3 -17 -7 -17 -15c0 -11 6 -15 28 -20c11 -2 11 -2 94 -12c98 -11 116 -15 146 -34c31 -20 47 -49 47 -85c0 -98 -143 -180 -314 -180
c-78 0 -130 15 -165 47c-17 16 -27 38 -27 59c0 52 46 86 165 121c-60 12 -82 33 -82 75c0 23 9 36 33 48c9 5 16 7 59 23c-92 21 -134 69 -134 151c0 105 86 178 209 178c30 0 43 -2 98 -14zM257 149c51 14 73 46 73 104c0 70 -31 112 -81 112c-51 0 -83 -39 -83 -99
c0 -65 33 -107 91 -117zM246 -60c-79 -20 -122 -48 -122 -79c0 -36 48 -60 117 -60c90 0 169 37 169 79c0 23 -22 40 -62 48c-31 6 -81 12 -102 12zM123 626h56c2 -45 29 -67 81 -67s79 23 81 67h55c1 -7 1 -14 1 -17c0 -82 -55 -138 -137 -138c-83 0 -137 55 -137 141v14z
" />
    <glyph glyph-name="lacute" unicode="&#x13a;" horiz-adv-x="241" 
d="M56 690h129v-690h-129v690zM221 908l102 -45l-4 -28l-198 -113l-57 18z" />
    <glyph glyph-name="lcaron" unicode="&#x13e;" horiz-adv-x="347" 
d="M56 690h129v-690h-129v690zM213 491v3c40 28 69 62 69 84c0 8 -5 14 -17 19c-26 13 -32 21 -32 44c0 28 25 50 56 50c41 0 70 -34 70 -81c0 -41 -20 -79 -62 -116c-17 -16 -47 -37 -52 -37c-1 0 -2 0 -6 5z" />
    <glyph glyph-name="nacute" unicode="&#x144;" horiz-adv-x="537" 
d="M56 422h129l-2 -51c63 41 121 62 171 62s89 -21 111 -57c15 -26 17 -42 17 -117v-259h-128v230c0 45 -1 63 -6 75c-8 19 -24 29 -51 29c-34 0 -69 -14 -112 -44v-290h-129v422zM359 654l102 -29v-27l-172 -133l-56 9z" />
    <glyph glyph-name="ncaron" unicode="&#x148;" horiz-adv-x="537" 
d="M56 422h129l-2 -51c63 41 121 62 171 62s89 -21 111 -57c15 -26 17 -42 17 -117v-259h-128v230c0 45 -1 63 -6 75c-8 19 -24 29 -51 29c-34 0 -69 -14 -112 -44v-290h-129v422zM320 472h-70l-111 170l43 19l103 -88l103 88l43 -19z" />
    <glyph glyph-name="ohungarumlaut" unicode="&#x151;" horiz-adv-x="555" 
d="M298 433c136 0 228 -89 228 -221c0 -133 -104 -225 -254 -225c-148 0 -242 86 -242 222c0 135 106 224 268 224zM274 357c-68 0 -107 -47 -107 -127c0 -99 50 -167 121 -167c62 0 100 48 100 127c0 97 -48 167 -114 167zM281 650l77 -20l2 -27l-131 -147l-57 4zM430 650
l76 -20l2 -27l-131 -147l-57 4z" />
    <glyph glyph-name="racute" unicode="&#x155;" horiz-adv-x="370" 
d="M56 422h129l-4 -103c49 82 90 114 145 114c19 0 47 -8 59 -16c6 -4 7 -7 7 -18c0 -8 0 -8 -4 -21l-28 -72h-18c-14 11 -24 15 -41 15c-44 0 -77 -31 -116 -107v-214h-129v422zM264 654l102 -29v-27l-172 -133l-56 9z" />
    <glyph glyph-name="sacute" unicode="&#x15b;" horiz-adv-x="426" 
d="M368 338l-32 -15c-40 24 -74 34 -116 34c-41 0 -62 -13 -62 -40c0 -24 6 -28 90 -53c112 -33 150 -66 150 -129c0 -87 -81 -145 -203 -145c-40 0 -120 11 -148 21c-6 2 -7 4 -8 13l-10 71l33 15c39 -29 86 -44 144 -44c42 0 69 17 69 45c0 25 -9 30 -86 53
c-67 19 -82 25 -106 42c-28 20 -43 50 -43 86c0 86 76 138 199 138c38 0 95 -6 114 -13c7 -2 7 -3 8 -15zM287 654l102 -29v-27l-172 -133l-56 9z" />
    <glyph glyph-name="scommaaccent" unicode="&#x219;" horiz-adv-x="426" 
d="M368 338l-32 -15c-40 24 -74 34 -116 34c-41 0 -62 -13 -62 -40c0 -24 6 -28 90 -53c112 -33 150 -66 150 -129c0 -87 -81 -145 -203 -145c-40 0 -120 11 -148 21c-6 2 -7 4 -8 13l-10 71l33 15c39 -29 86 -44 144 -44c42 0 69 17 69 45c0 25 -9 30 -86 53
c-67 19 -82 25 -106 42c-28 20 -43 50 -43 86c0 86 76 138 199 138c38 0 95 -6 114 -13c7 -2 7 -3 8 -15zM129 -241v3c41 27 69 62 69 83c0 8 -5 14 -17 19c-26 13 -32 21 -32 44c0 28 25 50 56 50c40 0 70 -34 70 -81c0 -41 -20 -79 -62 -116c-17 -16 -47 -37 -52 -37
c-1 0 -2 0 -6 6z" />
    <glyph glyph-name="tcaron" unicode="&#x165;" horiz-adv-x="372" 
d="M195 422h165v-72h-165v-181c0 -72 16 -99 57 -99c28 0 60 7 94 21l8 -3l11 -45v-4c0 -4 -3 -7 -21 -14c-59 -26 -111 -38 -158 -38c-42 0 -76 17 -94 46c-13 22 -18 50 -18 100v9l3 205h-60v33l146 147h34zM235 491v3c40 28 69 62 69 84c0 8 -5 14 -17 19
c-26 13 -32 21 -32 44c0 28 25 50 56 50c41 0 70 -34 70 -81c0 -41 -20 -79 -62 -116c-17 -16 -47 -37 -52 -37c-1 0 -2 0 -6 5z" />
    <glyph glyph-name="uring" unicode="&#x16f;" horiz-adv-x="537" 
d="M481 422v-422h-124l2 44c-51 -34 -112 -54 -165 -54s-96 20 -118 55c-16 27 -21 56 -21 139v238h129v-237c0 -45 2 -60 9 -73c9 -17 27 -27 50 -27c31 0 72 14 110 38v299h128zM269 692c66 0 119 -49 119 -110c0 -62 -52 -109 -121 -109c-65 0 -118 49 -118 109
c0 61 53 110 120 110zM268 642c-28 0 -50 -26 -50 -60c0 -35 23 -61 52 -61s49 25 49 61c0 34 -22 60 -51 60z" />
    <glyph glyph-name="uhungarumlaut" unicode="&#x171;" horiz-adv-x="537" 
d="M481 422v-422h-124l2 44c-51 -34 -112 -54 -165 -54s-96 20 -118 55c-16 27 -21 56 -21 139v238h129v-237c0 -45 2 -60 9 -73c9 -17 27 -27 50 -27c31 0 72 14 110 38v299h128zM272 650l77 -20l2 -27l-131 -147l-57 4zM421 650l76 -20l2 -27l-131 -147l-57 4z" />
    <glyph glyph-name="zacute" unicode="&#x17a;" horiz-adv-x="426" 
d="M32 422h384v-55l-243 -292h246l-16 -75h-397v54l244 293h-218v75zM292 654l102 -29v-27l-172 -133l-56 9z" />
    <glyph glyph-name="zdotaccent" unicode="&#x17c;" horiz-adv-x="426" 
d="M32 422h384v-55l-243 -292h246l-16 -75h-397v54l244 293h-218v75zM224 612c34 0 62 -28 62 -62s-28 -62 -63 -62c-33 0 -61 28 -61 62s28 62 62 62z" />
    <glyph glyph-name="tcommaaccent" unicode="&#x163;" horiz-adv-x="352" 
d="M195 422h165v-72h-165v-181c0 -72 16 -99 57 -99c28 0 60 7 94 21l8 -3l11 -45v-4c0 -4 -3 -7 -21 -14c-59 -26 -111 -38 -158 -38c-42 0 -76 17 -94 46c-13 22 -18 50 -18 100v9l3 205h-60v33l146 147h34zM117 -241v3c41 27 69 62 69 83c0 8 -5 14 -17 19
c-26 13 -32 21 -32 44c0 28 25 50 56 50c40 0 70 -34 70 -81c0 -41 -20 -79 -62 -116c-17 -16 -47 -37 -52 -37c-1 0 -2 0 -6 6z" />
    <glyph glyph-name="tcommaaccent" unicode="&#x21b;" horiz-adv-x="352" 
d="M195 422h165v-72h-165v-181c0 -72 16 -99 57 -99c28 0 60 7 94 21l8 -3l11 -45v-4c0 -4 -3 -7 -21 -14c-59 -26 -111 -38 -158 -38c-42 0 -76 17 -94 46c-13 22 -18 50 -18 100v9l3 205h-60v33l146 147h34zM117 -241v3c41 27 69 62 69 83c0 8 -5 14 -17 19
c-26 13 -32 21 -32 44c0 28 25 50 56 50c40 0 70 -34 70 -81c0 -41 -20 -79 -62 -116c-17 -16 -47 -37 -52 -37c-1 0 -2 0 -6 6z" />
    <glyph glyph-name="amacron" unicode="&#x101;" 
d="M59 305l-3 60c1 12 1 13 8 17c44 30 125 51 193 51c62 0 108 -15 135 -45c20 -22 26 -45 26 -101v-20l-3 -151v-5c0 -25 5 -32 23 -32c17 0 37 4 64 14l4 -3v-48c0 -11 -2 -14 -13 -19c-35 -19 -88 -33 -122 -33s-52 11 -68 40c-82 -31 -119 -40 -162 -40
c-69 0 -111 46 -111 122c0 92 38 113 262 141c0 57 -1 63 -7 74c-8 15 -30 23 -62 23c-55 0 -95 -17 -129 -54zM292 94v95c-30 -4 -82 -13 -100 -17c-33 -7 -40 -15 -40 -46c0 -34 14 -47 53 -47c24 0 35 2 81 13zM116 592h268v-94h-268v94z" />
    <glyph glyph-name="emacron" unicode="&#x113;" horiz-adv-x="463" 
d="M441 201l-279 -19c9 -71 42 -103 109 -103c49 0 99 14 143 41l7 -2l17 -50c1 0 1 -3 1 -4c0 -5 -3 -8 -15 -16c-55 -36 -134 -60 -199 -60c-123 0 -195 77 -195 208c0 72 25 137 70 180c40 39 90 57 154 57c78 0 130 -29 161 -91c17 -36 25 -76 26 -141zM161 250l140 11
c-1 39 -4 54 -12 69c-11 21 -29 33 -52 33c-44 0 -72 -41 -76 -113zM103 592h268v-94h-268v94z" />
    <glyph glyph-name="imacron" unicode="&#x12b;" horiz-adv-x="241" 
d="M56 422h129v-422h-129v422zM3 592h235v-94h-235v94z" />
    <glyph glyph-name="kcommaaccent" unicode="&#x137;" horiz-adv-x="518" 
d="M56 690h127v-690h-127v690zM374 422h148l-200 -167l210 -255h-169l-175 228zM183 -241v3c41 27 69 62 69 83c0 8 -5 14 -17 19c-26 13 -32 21 -32 44c0 28 25 50 56 50c40 0 70 -34 70 -81c0 -41 -20 -79 -62 -116c-17 -16 -47 -37 -52 -37c-1 0 -2 0 -6 6z" />
    <glyph glyph-name="lcommaaccent" unicode="&#x13c;" horiz-adv-x="241" 
d="M56 690h129v-690h-129v690zM44 -241v3c41 27 69 62 69 83c0 8 -5 14 -17 19c-26 13 -32 21 -32 44c0 28 25 50 56 50c40 0 70 -34 70 -81c0 -41 -20 -79 -62 -116c-17 -16 -47 -37 -52 -37c-1 0 -2 0 -6 6z" />
    <glyph glyph-name="ncommaaccent" unicode="&#x146;" horiz-adv-x="537" 
d="M56 422h129l-2 -51c63 41 121 62 171 62s89 -21 111 -57c15 -26 17 -42 17 -117v-259h-128v230c0 45 -1 63 -6 75c-8 19 -24 29 -51 29c-34 0 -69 -14 -112 -44v-290h-129v422zM193 -241v3c41 27 69 62 69 83c0 8 -5 14 -17 19c-26 13 -32 21 -32 44c0 28 25 50 56 50
c40 0 70 -34 70 -81c0 -41 -20 -79 -62 -116c-17 -16 -47 -37 -52 -37c-1 0 -2 0 -6 6z" />
    <glyph glyph-name="omacron" unicode="&#x14d;" horiz-adv-x="555" 
d="M298 433c136 0 228 -89 228 -221c0 -133 -104 -225 -254 -225c-148 0 -242 86 -242 222c0 135 106 224 268 224zM274 357c-68 0 -107 -47 -107 -127c0 -99 50 -167 121 -167c62 0 100 48 100 127c0 97 -48 167 -114 167zM144 592h268v-94h-268v94z" />
    <glyph glyph-name="rcommaaccent" unicode="&#x157;" horiz-adv-x="370" 
d="M56 422h129l-4 -103c49 82 90 114 145 114c19 0 47 -8 59 -16c6 -4 7 -7 7 -18c0 -8 0 -8 -4 -21l-28 -72h-18c-14 11 -24 15 -41 15c-44 0 -77 -31 -116 -107v-214h-129v422zM81 -241v3c41 27 69 62 69 83c0 8 -5 14 -17 19c-26 13 -32 21 -32 44c0 28 25 50 56 50
c40 0 70 -34 70 -81c0 -41 -20 -79 -62 -116c-17 -16 -47 -37 -52 -37c-1 0 -2 0 -6 6z" />
    <glyph glyph-name="umacron" unicode="&#x16b;" horiz-adv-x="537" 
d="M481 422v-422h-124l2 44c-51 -34 -112 -54 -165 -54s-96 20 -118 55c-16 27 -21 56 -21 139v238h129v-237c0 -45 2 -60 9 -73c9 -17 27 -27 50 -27c31 0 72 14 110 38v299h128zM134 592h268v-94h-268v94z" />
    <glyph glyph-name="uogonek" unicode="&#x173;" horiz-adv-x="537" 
d="M55 422h129v-237c0 -45 2 -60 9 -73c9 -17 27 -27 50 -27c31 0 72 14 110 38v299h128v-422c-42 -49 -58 -78 -58 -106c0 -25 20 -40 52 -40c11 0 31 1 40 3h10l-3 -20c-1 -14 -2 -15 -10 -20c-16 -10 -51 -19 -77 -19c-59 0 -99 35 -99 85c0 38 24 75 75 117h-54l2 44
c-51 -34 -112 -54 -165 -54s-96 20 -118 55c-16 27 -21 56 -21 139v238z" />
    <glyph glyph-name="rcaron" unicode="&#x159;" horiz-adv-x="370" 
d="M57 422h129l-4 -103c51 84 90 114 145 114c19 0 47 -8 59 -16c6 -4 7 -7 7 -18c0 -8 -1 -15 -4 -21l-28 -72h-18c-14 11 -24 15 -41 15c-43 0 -78 -32 -116 -107v-214h-129v422zM226 472h-70l-111 170l43 19l103 -88l103 88l43 -19z" />
    <glyph glyph-name="scedilla" unicode="&#x15f;" horiz-adv-x="426" 
d="M265 -3l-26 -43v-9c34 -14 51 -35 51 -62c0 -55 -65 -108 -132 -108c-36 0 -72 20 -72 39c0 3 1 5 4 8l33 29h12c16 -17 29 -24 45 -24s27 10 27 23c0 17 -12 27 -61 52v24l48 65c-37 -1 -72 4 -140 18c-13 4 -14 5 -15 15l-10 71l33 15c39 -29 86 -44 144 -44
c42 0 69 17 69 45c0 25 -9 30 -86 53c-67 19 -82 25 -106 42c-28 20 -43 50 -43 86c0 86 76 138 200 138c37 0 95 -7 113 -13c7 -2 8 -3 9 -15l6 -64l-32 -15c-40 24 -74 34 -116 34c-41 0 -62 -13 -62 -39c0 -25 6 -29 90 -54c112 -33 150 -66 150 -129
c0 -68 -50 -119 -133 -138z" />
    <glyph glyph-name="scedilla" unicode="&#xf6c2;" horiz-adv-x="426" 
d="M265 -3l-26 -43v-9c34 -14 51 -35 51 -62c0 -55 -65 -108 -132 -108c-36 0 -72 20 -72 39c0 3 1 5 4 8l33 29h12c16 -17 29 -24 45 -24s27 10 27 23c0 17 -12 27 -61 52v24l48 65c-37 -1 -72 4 -140 18c-13 4 -14 5 -15 15l-10 71l33 15c39 -29 86 -44 144 -44
c42 0 69 17 69 45c0 25 -9 30 -86 53c-67 19 -82 25 -106 42c-28 20 -43 50 -43 86c0 86 76 138 200 138c37 0 95 -7 113 -13c7 -2 8 -3 9 -15l6 -64l-32 -15c-40 24 -74 34 -116 34c-41 0 -62 -13 -62 -39c0 -25 6 -29 90 -54c112 -33 150 -66 150 -129
c0 -68 -50 -119 -133 -138z" />
    <glyph glyph-name="gcommaaccent" unicode="&#x123;" horiz-adv-x="518" 
d="M518 421v-75h-94c20 -27 28 -52 28 -87c0 -61 -32 -109 -90 -136c-31 -15 -37 -17 -98 -32c-24 -6 -24 -6 -53 -14c-12 -3 -17 -7 -17 -15c0 -11 6 -15 28 -20c11 -2 11 -2 94 -12c98 -11 116 -15 146 -34c31 -20 47 -49 47 -85c0 -98 -143 -180 -314 -180
c-78 0 -130 15 -165 47c-17 16 -27 38 -27 59c0 52 46 86 165 121c-60 12 -82 33 -82 75c0 23 9 36 33 48c9 5 16 7 59 23c-92 21 -134 69 -134 151c0 105 86 178 209 178c30 0 43 -2 98 -14zM257 149c51 14 73 46 73 104c0 70 -31 112 -81 112c-51 0 -83 -39 -83 -99
c0 -65 33 -107 91 -117zM246 -60c-79 -20 -122 -48 -122 -79c0 -36 48 -60 117 -60c90 0 169 37 169 79c0 23 -22 40 -62 48c-31 6 -81 12 -102 12zM330 664v-3c-40 -27 -69 -62 -69 -83c0 -8 6 -14 17 -20c26 -12 32 -20 32 -43c0 -28 -25 -50 -56 -50c-41 0 -70 34 -70 81
c0 41 20 79 62 116c17 15 47 37 52 37c2 0 2 0 6 -5z" />
    <glyph glyph-name="iogonek" unicode="&#x12f;" horiz-adv-x="241" 
d="M57 422h128v-422c-42 -49 -58 -78 -58 -106c0 -25 20 -40 52 -40c11 0 31 1 40 3h10l-3 -20c-1 -14 -2 -15 -9 -20c-17 -10 -52 -19 -78 -19c-59 0 -99 35 -99 85c0 38 24 75 75 117h-58v422zM121 697c40 0 72 -32 72 -72s-33 -72 -73 -72c-38 0 -71 33 -71 71
c0 40 32 73 72 73z" />
    <glyph glyph-name="Scommaaccent" unicode="&#x218;" horiz-adv-x="519" 
d="M453 609l7 -59l1 -9c0 -3 -1 -4 -7 -7l-23 -12c-6 -3 -6 -3 -8 -3c-3 0 -4 0 -19 11c-33 21 -87 37 -130 37c-66 0 -108 -31 -108 -80c0 -23 10 -44 28 -57s40 -24 107 -54c93 -43 108 -51 137 -78c30 -28 48 -69 48 -112c0 -113 -109 -198 -253 -198
c-51 0 -139 12 -180 24c-13 4 -15 6 -16 18l-8 69c-1 5 -1 8 -1 9c0 3 2 6 6 8l24 13c2 1 6 3 7 3s4 -1 6 -3c46 -33 120 -58 175 -58c69 0 114 34 114 87c0 21 -8 40 -24 53c-17 14 -35 23 -100 51c-84 37 -120 57 -150 86c-28 27 -46 70 -46 113c0 111 103 185 255 185
c46 0 125 -11 148 -21c7 -3 8 -6 10 -16zM181 -253v3c41 28 71 64 71 86c0 8 -5 14 -17 20c-27 13 -33 21 -33 44c0 30 25 52 58 52c42 0 72 -35 72 -83c0 -43 -22 -83 -67 -122c-18 -16 -46 -35 -51 -35c-2 0 -2 0 -6 5z" />
    <glyph glyph-name="Dcroat" unicode="&#x110;" horiz-adv-x="759" 
d="M78 305h-79v73h79v256c165 5 255 7 269 7c119 0 195 -16 255 -53c82 -50 124 -134 124 -249c0 -135 -57 -239 -160 -293c-63 -32 -147 -46 -283 -46h-205v305zM217 305v-227h109c84 0 143 14 179 42c51 40 75 105 75 203c0 99 -22 158 -74 196c-43 31 -89 43 -171 43
l-118 -1v-183h201v-73h-201z" />
    <glyph glyph-name="dcroat" unicode="&#x111;" horiz-adv-x="555" 
d="M499 603h69v-70h-69v-533h-127l2 37c-50 -31 -100 -47 -153 -47c-115 0 -192 76 -192 191c0 138 118 246 269 246c23 0 40 -2 74 -8v114h-113v70h113v87h127v-87zM372 101v215c-31 14 -60 20 -97 20c-78 0 -114 -36 -114 -116c0 -89 44 -142 117 -142c30 0 62 8 94 23z
" />
    <glyph glyph-name="middot" unicode="&#xe000;" horiz-adv-x="278" 
d="M139 319c44 0 79 -36 79 -80c0 -43 -36 -78 -80 -78c-42 0 -78 36 -78 79s35 79 79 79z" />
    <glyph glyph-name="commaaccent" unicode="&#xf6c3;" 
d="M174 -241v3c41 27 69 62 69 83c0 8 -5 14 -17 19c-26 13 -32 21 -32 44c0 28 25 50 56 50c40 0 70 -34 70 -81c0 -41 -20 -79 -62 -116c-17 -16 -47 -37 -52 -37c-1 0 -2 0 -6 6z" />
    <glyph glyph-name="nbspace" unicode="&#xe001;" horiz-adv-x="193" 
 />
    <glyph glyph-name="lozenge" unicode="&#x25ca;" horiz-adv-x="634" 
d="M317 659l247 -342l-247 -341l-247 341zM317 575l-188 -258l188 -257l187 257z" />
    <glyph glyph-name="Delta" unicode="&#x394;" horiz-adv-x="634" 
d="M15 0l232 634h134l237 -634h-603zM192 115h247l-124 368z" />
    <glyph glyph-name="Delta" unicode="&#x2206;" horiz-adv-x="634" 
d="M15 0l232 634h134l237 -634h-603zM192 115h247l-124 368z" />
    <glyph glyph-name="notequal" unicode="&#x2260;" horiz-adv-x="556" 
d="M332 347l-28 -60h177c18 0 19 -1 19 -21v-31c0 -20 -1 -21 -25 -21h-204l-44 -94c-5 -11 -7 -13 -12 -13c-4 0 -9 2 -15 5l-31 14c-13 6 -15 8 -15 13c0 3 1 7 4 13l29 62h-113c-17 0 -19 2 -19 21v30c0 18 3 22 19 22h147l28 60h-175c-18 0 -19 2 -19 21v31
c0 19 2 21 19 21h209l47 102c5 11 7 13 11 13s11 -2 16 -5l31 -14c9 -4 15 -9 15 -13c0 -3 -2 -8 -7 -18l-30 -65h115c18 0 19 -1 19 -21v-31c0 -20 -1 -21 -25 -21h-143z" />
    <glyph glyph-name="radical" unicode="&#x221a;" horiz-adv-x="494" 
d="M662 791v-107h-176l-159 -684h-150l-55 266h-94v107h192l17 -83c8 -51 12 -101 13 -141h10c2 57 23 204 41 278l84 364h277z" />
    <glyph glyph-name="lessequal" unicode="&#x2264;" horiz-adv-x="555" 
d="M484 630v-91l-316 -153l316 -152v-91l-412 192v99zM484 101v-81h-412v81h412z" />
    <glyph glyph-name="greaterequal" unicode="&#x2265;" horiz-adv-x="555" 
d="M72 143v91l316 153l-316 152v91l412 -192v-99zM484 101v-81h-412v81h412z" />
    <glyph glyph-name="summation" unicode="&#x2211;" horiz-adv-x="634" 
d="M590 713v-239h-108l-13 126h-314l239 -346l-239 -380h323l8 126h113v-238h-579v127l232 365l-232 331v128h570z" />
    <glyph glyph-name="partialdiff" unicode="&#x2202;" horiz-adv-x="476" 
d="M60 525l15 107c122 -13 201 -43 267 -101c77 -68 118 -164 118 -276c0 -160 -88 -264 -225 -264c-122 0 -220 97 -220 218c0 115 86 202 197 202c47 0 86 -15 115 -43c-36 88 -135 146 -267 157zM237 321c-56 0 -97 -49 -97 -115c0 -70 42 -123 97 -123s96 52 96 121
c0 67 -41 117 -96 117z" />
    </font>
</defs>
</svg>
